<?xml version="1.0" standalone="no"?>
<!DOCTYPE svg PUBLIC "-//W3C//DTD SVG 1.1//EN" "http://www.w3.org/Graphics/SVG/1.1/DTD/svg11.dtd" >
<svg xmlns="http://www.w3.org/2000/svg">
<metadata>Generated by IcoMoon</metadata>
<defs>
<font id="MobiriseIcons" horiz-adv-x="1024">
<font-face units-per-em="1024" ascent="960" descent="-64" />
<missing-glyph horiz-adv-x="1024" />
<glyph unicode="&#x20;" horiz-adv-x="512" d="" />
<glyph unicode="&#xe900;" glyph-name="mbri-add-submenu" d="M68.267 857.6c-37.547 0-68.267-30.72-68.267-68.267v-68.267c0-37.547 30.72-68.267 68.267-68.267h716.8c37.547 0 68.267 30.72 68.267 68.267v68.267c0 37.547-30.72 68.267-68.267 68.267zM68.267 823.467h716.8c19.217 0 34.133-14.916 34.133-34.133v-68.267c0-19.217-14.916-34.133-34.133-34.133h-716.8c-19.217 0-34.133 14.916-34.133 34.133v68.267c0 19.217 14.916 34.133 34.133 34.133zM68.267 226.133v-68.267c0-8.943 8.124-17.067 17.067-17.067h232.55l-39.492-38.4c-16.384-16.964 9.557-39.492 23.484-24.576l68.267 68.267c6.588 6.383 6.588 18.227 0 24.576l-68.267 68.267c-13.551 13.551-38.912-9.148-23.484-24.576l39.458-39.424h-215.45v51.2c0 22.699-34.133 21.982-34.133 0zM546.133 243.2c-37.547 0-68.267-30.72-68.267-68.267v-68.267c0-37.547 30.72-68.267 68.267-68.267h409.6c37.547 0 68.267 30.72 68.267 68.267v68.267c0 37.547-30.72 68.267-68.267 68.267zM546.133 209.067h409.6c19.217 0 34.133-14.916 34.133-34.133v-68.267c0-19.217-14.916-34.133-34.133-34.133h-409.6c-19.217 0-34.133 14.916-34.133 34.133v68.267c0 19.217 14.916 34.133 34.133 34.133zM68.267 550.4c-37.547 0-68.267-30.72-68.267-68.267v-68.267c0-37.547 30.72-68.267 68.267-68.267h716.8c37.547 0 68.267 30.72 68.267 68.267v68.267c0 37.547-30.72 68.267-68.267 68.267zM68.267 516.267h716.8c19.217 0 34.133-14.916 34.133-34.133v-68.267c0-19.217-14.916-34.133-34.133-34.133h-716.8c-19.217 0-34.133 14.916-34.133 34.133v68.267c0 19.217 14.916 34.133 34.133 34.133z" />
<glyph unicode="&#xe901;" glyph-name="mbri-alert" d="M460.8 38.4c-9.421-0.137-17.203-7.646-17.067-17.067v-17.067c0-37.547 30.72-68.267 68.267-68.267s68.267 30.72 68.267 68.267v17.067c0 11.366-8.533 17.067-17.067 17.067s-17.067-5.53-17.067-17.067v-17.067c0-19.217-14.916-34.133-34.133-34.133s-34.133 14.916-34.133 34.133v17.067c0.137 9.626-7.441 17.203-17.067 17.067zM512 960c-56.32 0-102.4-46.080-102.4-102.4v-17.067c0-22.187 34.133-22.528 34.133 0v17.067c0 37.888 30.379 68.267 68.267 68.267s68.267-30.379 68.267-68.267v-17.067c0-22.323 34.133-22.528 34.133 0v17.067c0 56.32-46.080 102.4-102.4 102.4zM768 857.6c103.561 0 187.733-84.241 187.733-187.733 0-22.699-34.133-22.699-34.133 0 0 84.992-68.471 153.6-153.6 153.6-22.767 0-22.63 34.133 0 34.133zM256 857.6c-103.492 0-187.733-84.241-187.733-187.733 0-22.699 34.133-22.699 34.133 0 0 84.992 68.608 153.6 153.6 153.6 22.801 0 22.699 34.133 0 34.133zM512 789.333c-147.456 0-228.284-61.781-267.537-140.015s-39.663-170.462-39.663-235.452c0-68.267 0-198.554-98.304-313.139-2.564-2.969-4.126-6.866-4.126-11.127 0-9.426 7.641-17.067 17.067-17.067 0.011 0 0.021 0 0.032 0h785.065c0.009 0 0.020 0 0.030 0 9.426 0 17.067 7.641 17.067 17.067 0 4.262-1.562 8.159-4.145 11.149-98.286 114.564-98.286 244.851-98.286 313.117 0 64.99-0.444 157.218-39.663 235.452-39.253 78.234-120.081 140.015-267.537 140.015zM512 755.2c138.377 0 202.65-52.668 236.988-121.173 34.372-68.608 36.079-155.58 36.079-220.16 0-63.215 3.652-190.020 88.269-307.2h-722.671c84.651 117.18 88.269 243.985 88.269 307.2 0 64.614 1.707 151.552 36.079 220.16 34.338 68.471 98.645 121.173 236.988 121.173z" />
<glyph unicode="&#xe902;" glyph-name="mbri-align-center" d="M1006.933 174.933h-989.867c-23.211 0-22.084-34.133 0-34.133h989.867c22.016 0 22.972 34.133 0 34.133zM733.867 379.733h-443.733c-22.972 0-22.323-34.133 0-34.133h443.733c22.187 0 22.869 34.133 0 34.133zM1006.933 584.533h-989.867c-22.187 0-23.211-34.133 0-34.133h989.867c22.357 0 22.733 34.133 0 34.133zM733.867 789.333h-443.733c-22.528 0-22.528-34.133 0-34.133h443.733c22.289 0 22.699 34.133 0 34.133z" />
<glyph unicode="&#xe903;" glyph-name="mbri-align-justify" d="M1006.933 174.933h-989.867c-23.211 0-22.084-34.133 0-34.133h989.867c22.016 0 22.972 34.133 0 34.133zM1006.933 379.733h-989.867c-22.972 0-22.323-34.133 0-34.133h989.867c22.187 0 22.869 34.133 0 34.133zM1006.933 584.533h-989.867c-22.187 0-23.211-34.133 0-34.133h989.867c22.357 0 22.733 34.133 0 34.133zM1006.933 789.333h-989.867c-22.528 0-22.528-34.133 0-34.133h989.867c22.289 0 22.699 34.133 0 34.133z" />
<glyph unicode="&#xe904;" glyph-name="mbri-align-left" d="M17.067 174.933h580.267c23.211 0 22.084-34.133 0-34.133h-580.267c-22.016 0-22.972 34.133 0 34.133zM17.067 379.733h989.867c22.972 0 22.323-34.133 0-34.133h-989.867c-22.187 0-22.869 34.133 0 34.133zM17.067 584.533h580.267c22.187 0 23.211-34.133 0-34.133h-580.267c-22.357 0-22.733 34.133 0 34.133zM17.067 789.333h989.867c22.528 0 22.528-34.133 0-34.133h-989.867c-22.289 0-22.699 34.133 0 34.133z" />
<glyph unicode="&#xe905;" glyph-name="mbri-align-right" d="M1006.933 174.933h-580.267c-23.211 0-22.084-34.133 0-34.133h580.267c22.016 0 22.972 34.133 0 34.133zM1006.933 379.733h-989.867c-22.972 0-22.323-34.133 0-34.133h989.867c22.187 0 22.869 34.133 0 34.133zM1006.933 584.533h-580.267c-22.187 0-23.211-34.133 0-34.133h580.267c22.357 0 22.733 34.133 0 34.133zM1006.933 789.333h-989.867c-22.528 0-22.528-34.133 0-34.133h989.867c22.289 0 22.699 34.133 0 34.133z" />
<glyph unicode="&#xe906;" glyph-name="mbri-android" d="M837.188 925.867c13.483 0 20.139-15.565 13.585-26.078l-102.229-170.428c-11.605-19.319-39.595-0.341-29.355 17.545l102.298 170.462c3.209 5.598 9.284 8.533 15.701 8.533zM186.812 925.867c-12.8-0.239-20.139-15.531-13.585-26.078l102.229-170.428c11.537-19.217 40.073-0.341 29.355 17.545l-102.332 170.428c-3.14 5.632-9.284 8.704-15.667 8.533zM665.6 516.267c-28.058 0-51.2-23.142-51.2-51.2v-68.267c0-28.058 23.142-51.2 51.2-51.2s51.2 23.142 51.2 51.2v68.267c0 28.058-23.142 51.2-51.2 51.2zM665.6 482.133c9.762 0 17.067-7.305 17.067-17.067v-68.267c0-9.762-7.305-17.067-17.067-17.067s-17.067 7.305-17.067 17.067v68.267c0 9.762 7.305 17.067 17.067 17.067zM358.4 516.267c-28.058 0-51.2-23.142-51.2-51.2v-68.267c0-28.058 23.142-51.2 51.2-51.2s51.2 23.142 51.2 51.2v68.267c0 28.058-23.142 51.2-51.2 51.2zM358.4 482.133c9.762 0 17.067-7.305 17.067-17.067v-68.267c0-9.762-7.305-17.067-17.067-17.067s-17.067 7.305-17.067 17.067v68.267c0 9.762 7.305 17.067 17.067 17.067zM51.2 209.067c-28.058 0-51.2-23.142-51.2-51.2v-136.533c0-28.058 23.142-51.2 51.2-51.2h921.6c28.058 0 51.2 23.142 51.2 51.2v136.533c0 28.058-23.142 51.2-51.2 51.2zM51.2 174.933h921.6c9.762 0 17.067-7.305 17.067-17.067v-136.533c0-9.762-7.305-17.067-17.067-17.067h-921.6c-9.762 0-17.067 7.305-17.067 17.067v136.533c0 9.762 7.305 17.067 17.067 17.067zM512 721.067c-241.084-0.341-451.516-160.256-509.884-388.335l-0.102-0.41s-5.257-20.275 1.092-42.564c3.174-11.127 9.694-23.381 21.504-32.427 11.844-8.977 28.16-14.097 48.469-14.097h877.636c20.309 0 36.693 5.12 48.469 14.131 11.878 9.011 18.432 21.265 21.572 32.427 6.383 22.255 1.263 42.564 1.263 42.564l-0.137 0.444c-58.3 228.045-268.766 388.028-509.884 388.267zM512 686.933c225.963-0.205 422.229-149.709 476.74-362.257 0-0.068 2.662-13.756-0.751-25.6-1.707-5.939-4.437-10.752-9.387-14.541-5.018-3.755-13.073-7.168-27.853-7.168h-877.568c-14.848 0-22.869 3.413-27.853 7.168-4.983 3.823-7.646 8.636-9.318 14.575-3.345 11.742-0.785 25.122-0.751 25.395 54.511 212.582 250.778 362.086 476.74 362.428z" />
<glyph unicode="&#xe907;" glyph-name="mbri-apple" d="M664.508 960c-98.987-5.12-181.521-87.654-186.641-186.709-0.021-0.317-0.033-0.688-0.033-1.061 0-9.426 7.641-17.067 17.067-17.067 0.396 0 0.789 0.013 1.178 0.040 98.934 5.117 181.468 87.583 186.588 186.604 0.021 0.317 0.033 0.688 0.033 1.061 0 9.426-7.641 17.067-17.067 17.067-0.396 0-0.789-0.013-1.178-0.040zM642.116 919.45c-13.756-61.235-62.464-109.909-123.699-123.699 13.722 61.235 62.464 109.978 123.699 123.699zM328.090 721.067c-54.955 0-120.491-14.882-172.1-66.15-51.678-51.2-87.723-137.079-87.723-275.183 0-139.127 49.152-248.832 105.028-324.267 27.921-37.717 57.685-67.447 84.446-87.484 26.829-20.002 48.469-31.983 70.417-31.983 54.477 0 84.207 9.489 108.305 18.091 24.064 8.704 41.54 16.043 82.261 16.043 40.755 0 58.231-7.339 82.261-16.043 24.132-8.602 53.862-18.091 108.339-18.091 33.382 0 79.292 20.753 126.635 67.243 47.445 46.421 94.549 119.057 119.125 225.041 0.419 1.397 0.659 3.002 0.659 4.662 0 8.132-5.778 14.935-13.514 16.65-83.845 19.819-146.275 92.625-146.275 181.338 0 74.547 43.588 139.264 107.179 169.643 5.579 2.911 9.315 8.591 9.315 15.129 0 3.477-1.056 6.711-2.87 9.408-53.652 81.618-135.64 95.954-200.288 95.954-53.931 0-91.341-9.387-120.149-18.091-28.911-8.806-48.299-16.043-70.417-16.043-22.187 0-41.54 7.236-70.383 16.043-28.843 8.67-66.321 18.091-120.218 18.091zM328.090 686.933c50.108 0 81.988-7.68 109.397-16.043 27.443-8.26 51.371-18.091 81.237-18.091 29.833 0 53.76 9.83 81.237 18.091 27.409 8.363 59.255 16.043 109.329 16.043 56.081 0 116.975-11.605 162.406-70.417-64.683-39.014-110.455-105.574-110.455-185.583 0-97.451 64.853-178.381 153.771-208.009-23.962-91.238-62.635-155.75-102.878-195.174-42.564-41.745-86.903-57.617-102.844-57.617-50.654 0-72.977 7.578-96.393 16.043-23.381 8.363-48.811 18.091-94.208 18.091s-70.793-9.728-94.208-18.091c-23.381-8.465-45.67-16.043-96.358-16.043-4.779 0-26.078 7.851-49.835 25.6-23.654 17.749-51.883 43.793-77.926 78.95-52.053 70.315-97.451 173.739-97.451 305.050 0 132.335 33.246 208.452 76.868 251.733s99.43 55.467 148.343 55.467z" />
<glyph unicode="&#xe908;" glyph-name="mbri-arrow-down" d="M546.133 260.676c0 4.437 1.809 8.636 4.983 11.742l443.733 443.802c14.336 15.019 40.073-8.192 24.098-24.132l-443.733-443.733c-10.308-10.581-29.116-3.277-29.116 12.356zM29.082 716.22l477.867-477.935c15.258-15.258-9.318-39.595-24.132-24.132l-477.867 477.867c-15.155 15.189 8.875 39.424 24.132 24.166z" />
<glyph unicode="&#xe909;" glyph-name="mbri-arrow-next" d="M699.392 413.867c-4.437 0-8.636-1.843-11.742-4.983l-443.733-443.733c-15.019-14.404 8.192-40.107 24.166-24.166l443.733 443.733c10.581 10.342 3.243 29.15-12.425 29.15zM256 960c-15.36 0-22.665-18.534-12.083-29.15l477.867-477.867c15.292-15.258 39.595 9.318 24.166 24.166l-477.867 477.867c-3.209 3.277-7.509 4.983-12.083 4.983z" />
<glyph unicode="&#xe90a;" glyph-name="mbri-arrow-prev" d="M290.475 413.867c4.437 0 8.636-1.809 11.742-4.983l443.733-443.733c15.019-14.336-8.192-40.073-24.132-24.098l-443.733 443.733c-10.581 10.308-3.311 29.082 12.39 29.082zM733.867 960c15.36 0 22.665-18.534 12.083-29.116l-477.867-477.867c-15.258-15.258-39.595 9.318-24.132 24.132l477.867 477.867c3.174 3.277 7.441 4.983 12.049 4.983z" />
<glyph unicode="&#xe90b;" glyph-name="mbri-arrow-up" d="M546.133 669.594c0-4.437 1.809-8.636 4.983-11.742l443.733-443.802c14.336-15.019 40.073 8.192 24.098 24.132l-443.733 443.802c-10.308 10.581-29.116 3.243-29.116-12.39zM29.082 214.050l477.867 477.935c15.258 15.292-9.318 39.595-24.132 24.132l-477.867-477.935c-15.155-15.155 8.875-39.39 24.132-24.132z" />
<glyph unicode="&#xe90c;" glyph-name="mbri-bold" d="M204.8 942.933v-989.867c0-8.943 8.124-17.067 17.067-17.067h324.267c169.882 0 307.2 137.318 307.2 307.2 0 103.185-51.2 193.877-129.024 249.617 51.814 49.493 87.381 116.531 87.381 194.116 0 151.040-122.709 273.067-274.091 273.067h-315.733c-11.127 0-17.067-7.782-17.067-17.067zM537.6 925.867c133.12 0 239.957-106.325 239.957-238.933 0-74.513-34.133-140.698-87.381-184.525-8.533-6.622-7.987-21.777 1.024-27.75 76.629-48.162 128-133.564 128-231.458 0-151.552-121.515-273.169-273.067-273.067h-307.2v955.733zM341.333 430.933v-341.333c0-8.943 8.124-17.067 17.067-17.067h171.691c103.083 0 186.709 84.105 186.709 187.733s-83.627 187.733-186.709 187.733h-171.691c-10.342 0-17.067-8.124-17.067-17.067zM375.467 413.867h154.624c84.651 0 152.576-68.13 152.576-153.6s-67.994-153.6-152.576-153.6h-154.624zM341.333 806.4v-238.933c0-8.943 8.124-17.067 17.067-17.067h187.733c75.332 0 136.533 61.201 136.533 136.533s-61.201 136.533-136.533 136.533h-187.733c-10.786 0-17.067-8.021-17.067-17.067zM375.467 789.333h170.667c57.003 0 102.4-45.397 102.4-102.4s-45.397-102.4-102.4-102.4h-170.667z" />
<glyph unicode="&#xe90d;" glyph-name="mbri-bookmark" d="M221.867 516.267h580.267c9.455 0 17.067-7.612 17.067-17.067s-7.612-17.067-17.067-17.067h-580.267c-9.455 0-17.067 7.612-17.067 17.067s7.612 17.067 17.067 17.067zM221.867 652.8h580.267c9.455 0 17.067-7.612 17.067-17.067s-7.612-17.067-17.067-17.067h-580.267c-9.455 0-17.067 7.612-17.067 17.067s7.612 17.067 17.067 17.067zM221.867 789.333h580.267c9.455 0 17.067-7.612 17.067-17.067s-7.612-17.067-17.067-17.067h-580.267c-9.455 0-17.067 7.612-17.067 17.067s7.612 17.067 17.067 17.067zM85.811 960c-28.331 0-51.678-23.347-51.678-51.678v-916.582c0-17.579 8.090-33.997 21.948-44.817 13.824-10.82 35.157-14.677 54.511-5.12l401.408 197.052 401.852-197.052c15.77-7.748 34.475-7.987 49.937 0.683 15.497 8.772 26.078 27.136 26.078 49.254v917.060c0 28.058-23.142 51.2-51.2 51.2h-852.855zM85.811 925.867h852.855c10.24 0 17.067-6.827 17.067-17.067v-917.060c0-12.493-4.096-16.828-8.738-19.456-4.676-2.662-11.742-2.97-18.091 0.171l-409.361 200.704c-2.192 1.098-4.775 1.741-7.509 1.741s-5.318-0.643-7.608-1.786l-408.853-200.591c-8.704-4.267-13.312-2.628-18.432 1.365-5.12 3.959-8.875 11.708-8.875 17.92v916.514c0 10.035 7.509 17.545 17.545 17.545z" />
<glyph unicode="&#xe90e;" glyph-name="mbri-bootstrap" d="M426.667 448c-9.426 0-17.067-7.641-17.067-17.067v-170.667c0-9.426 7.641-17.067 17.067-17.067h68.267c28.092 0 57.003 5.905 80.213 22.187 23.211 16.316 39.253 44.134 39.253 80.213s-16.043 63.898-39.253 80.213c-23.211 16.282-52.122 22.187-80.213 22.187h-68.267zM443.733 413.867h51.2c23.108 0 45.397-5.359 60.587-16.043 15.189-10.581 24.747-25.395 24.747-52.224s-9.557-41.643-24.747-52.224c-15.155-10.684-37.478-16.043-60.587-16.043h-51.2v136.533zM358.4 721.067c-9.421 0-17.067-7.646-17.067-17.067v-512c0-9.421 7.646-17.067 17.067-17.067h153.6c55.979 0 99.669 23.893 128.137 57.139 28.467 33.212 42.53 75.093 42.53 113.527 0 71.68-43.213 108.817-60.689 121.651 4.881 6.485 3.277 4.028 7.509 11.878 9.899 18.432 19.046 47.104 19.046 88.337 0 36.966-9.114 75.196-33.792 104.789-24.678 29.628-64.853 48.811-119.808 48.811zM375.467 686.933h119.467c47.445 0 75.537-14.95 93.525-36.523 17.988-21.606 25.941-51.644 25.941-82.944 0-36.181-7.851-58.812-15.019-72.192s-12.117-16.384-12.117-16.384c-9.796-7.168-9.216-22.016 1.126-28.331 0 0 60.143-37.547 60.143-104.96 0-29.867-11.537-64.751-34.27-91.273-22.733-26.487-55.842-45.261-102.263-45.261h-136.533zM426.667 652.8c-9.426 0-17.067-7.641-17.067-17.067v-136.533c0-9.426 7.641-17.067 17.067-17.067h68.267c29.355 0 52.463 10.65 66.458 27.477 13.995 16.794 18.876 37.956 18.876 57.856s-4.847 41.062-18.876 57.856c-13.995 16.828-37.103 27.477-66.458 27.477h-68.267zM443.733 618.667h51.2c21.845 0 32.87-6.417 40.209-15.189 7.305-8.806 10.991-21.777 10.991-36.011s-3.686-27.204-10.991-36.011c-7.339-8.772-18.432-15.189-40.209-15.189h-51.2v102.4zM51.2 960c-28.058 0-51.2-23.142-51.2-51.2v-921.6c0-28.058 23.142-51.2 51.2-51.2h921.6c28.058 0 51.2 23.142 51.2 51.2v921.6c0 28.058-23.142 51.2-51.2 51.2h-921.6zM51.2 925.867h921.6c9.762 0 17.067-7.305 17.067-17.067v-921.6c0-9.762-7.305-17.067-17.067-17.067h-921.6c-9.762 0-17.067 7.305-17.067 17.067v921.6c0 9.762 7.305 17.067 17.067 17.067z" />
<glyph unicode="&#xe90f;" glyph-name="mbri-briefcase" d="M358.4 891.733c-28.058 0-51.2-23.142-51.2-51.2v-68.267c0-22.869 34.475-22.528 34.133 0v68.267c0 9.762 7.305 17.067 17.067 17.067h307.2c9.762 0 17.067-7.305 17.067-17.067v-68.267c0-22.528 34.133-22.869 34.133 0v68.267c0 28.058-23.142 51.2-51.2 51.2zM938.394 652.8c-5.052 0-9.728-1.98-12.732-6.076l-187.733-221.867c-15.701-18.5-25.771-30.174-34.816-36.318-5.666-3.857-12.288-5.939-20.48-7.27v15.531c0 9.455-7.612 17.067-17.067 17.067s-17.067-7.612-17.067-17.067v-17.067h-273.067v17.067c0 9.455-7.612 17.067-17.067 17.067s-17.067-7.612-17.067-17.067v-15.531c-8.192 1.365-14.814 3.413-20.48 7.27-9.045 6.144-19.115 17.818-34.816 36.318l-187.733 221.867c-3.277 4.028-7.748 6.144-12.971 6.076-14.336 0-22.528-17.135-12.971-28.058l187.733-221.867c15.497-18.364 26.522-32.29 41.574-42.53 11.196-7.612 24.132-12.049 39.663-13.824v-17.988c0-9.455 7.612-17.067 17.067-17.067s17.067 7.612 17.067 17.067v17.067h273.067v-17.067c0-9.455 7.612-17.067 17.067-17.067s17.067 7.612 17.067 17.067v17.988c15.531 1.775 28.467 6.212 39.663 13.824 15.019 10.24 26.078 24.166 41.643 42.53l187.733 221.867c9.216 9.284 1.365 28.058-13.312 28.058zM51.2 721.067c-28.058 0-51.2-23.142-51.2-51.2v-614.4c0-28.058 23.142-51.2 51.2-51.2h921.6c28.058 0 51.2 23.142 51.2 51.2v614.4c0 28.058-23.142 51.2-51.2 51.2zM51.2 686.933h921.6c9.762 0 17.067-7.305 17.067-17.067v-614.4c0-9.762-7.305-17.067-17.067-17.067h-921.6c-9.762 0-17.067 7.305-17.067 17.067v614.4c0 9.762 7.305 17.067 17.067 17.067z" />
<glyph unicode="&#xe910;" glyph-name="mbri-browse" d="M85.333 686.933h853.333c9.455 0 17.067-7.612 17.067-17.067s-7.612-17.067-17.067-17.067h-853.333c-9.455 0-17.067 7.612-17.067 17.067s7.612 17.067 17.067 17.067zM238.933 738.133c0-9.426-7.641-17.067-17.067-17.067s-17.067 7.641-17.067 17.067c0 9.426 7.641 17.067 17.067 17.067s17.067-7.641 17.067-17.067zM170.667 738.133c0-9.426-7.641-17.067-17.067-17.067s-17.067 7.641-17.067 17.067c0 9.426 7.641 17.067 17.067 17.067s17.067-7.641 17.067-17.067zM102.4 738.133c0-9.426-7.641-17.067-17.067-17.067s-17.067 7.641-17.067 17.067c0 9.426 7.641 17.067 17.067 17.067s17.067-7.641 17.067-17.067zM51.2 823.467c-28.058 0-51.2-23.142-51.2-51.2v-648.533c0-28.058 23.142-51.2 51.2-51.2h921.6c28.058 0 51.2 23.142 51.2 51.2v648.533c0 28.058-23.142 51.2-51.2 51.2h-921.6zM51.2 789.333h921.6c9.762 0 17.067-7.305 17.067-17.067v-648.533c0-9.762-7.305-17.067-17.067-17.067h-921.6c-9.762 0-17.067 7.305-17.067 17.067v648.533c0 9.762 7.305 17.067 17.067 17.067z" />
<glyph unicode="&#xe911;" glyph-name="mbri-bulleted-list" d="M119.467 243.2c-65.775 0-119.467-53.692-119.467-119.467s53.692-119.467 119.467-119.467 119.467 53.692 119.467 119.467-53.692 119.467-119.467 119.467zM119.467 209.067c47.343 0 85.333-37.99 85.333-85.333s-37.99-85.333-85.333-85.333-85.333 37.99-85.333 85.333 37.99 85.333 85.333 85.333zM119.467 584.533c-65.775 0-119.467-53.692-119.467-119.467s53.692-119.467 119.467-119.467 119.467 53.692 119.467 119.467-53.692 119.467-119.467 119.467zM119.467 550.4c47.343 0 85.333-37.99 85.333-85.333s-37.99-85.333-85.333-85.333-85.333 37.99-85.333 85.333 37.99 85.333 85.333 85.333zM119.467 925.867c-65.775 0-119.023-53.692-119.023-119.467s53.248-119.467 119.023-119.467 119.023 53.692 119.023 119.467-53.214 119.467-119.023 119.467zM119.467 891.733c47.343 0 85.777-37.99 85.777-85.333s-38.468-85.333-85.777-85.333-85.777 37.99-85.777 85.333 38.434 85.333 85.777 85.333zM1006.933 789.333h-682.667c-22.869 0-22.187 34.133 0 34.133h682.667c22.528 0 22.869-34.133 0-34.133zM1006.933 448h-682.667c-22.869 0-22.187 34.133 0 34.133h682.667c22.528 0 22.869-34.133 0-34.133zM1006.933 106.667h-682.667c-22.869 0-22.187 34.133 0 34.133h682.667c22.528 0 22.869-34.133 0-34.133z" />
<glyph unicode="&#xe912;" glyph-name="mbri-calendar" d="M460.8 311.467h102.4c9.455 0 17.067-7.612 17.067-17.067s-7.612-17.067-17.067-17.067h-102.4c-9.455 0-17.067 7.612-17.067 17.067s7.612 17.067 17.067 17.067zM733.867 311.467h102.4c9.455 0 17.067-7.612 17.067-17.067s-7.612-17.067-17.067-17.067h-102.4c-9.455 0-17.067 7.612-17.067 17.067s7.612 17.067 17.067 17.067zM187.733 311.467h102.4c9.455 0 17.067-7.612 17.067-17.067s-7.612-17.067-17.067-17.067h-102.4c-9.455 0-17.067 7.612-17.067 17.067s7.612 17.067 17.067 17.067zM460.8 516.267h102.4c9.455 0 17.067-7.612 17.067-17.067s-7.612-17.067-17.067-17.067h-102.4c-9.455 0-17.067 7.612-17.067 17.067s7.612 17.067 17.067 17.067zM733.867 516.267h102.4c9.455 0 17.067-7.612 17.067-17.067s-7.612-17.067-17.067-17.067h-102.4c-9.455 0-17.067 7.612-17.067 17.067s7.612 17.067 17.067 17.067zM187.733 516.267h102.4c9.455 0 17.067-7.612 17.067-17.067s-7.612-17.067-17.067-17.067h-102.4c-9.455 0-17.067 7.612-17.067 17.067s7.612 17.067 17.067 17.067zM802.133 857.6c9.455 0 17.067-7.612 17.067-17.067v-136.533c0-9.455-7.612-17.067-17.067-17.067s-17.067 7.612-17.067 17.067v136.533c0 9.455 7.612 17.067 17.067 17.067zM221.867 857.6c9.455 0 17.067-7.612 17.067-17.067v-136.533c0-9.455-7.612-17.067-17.067-17.067s-17.067 7.612-17.067 17.067v136.533c0 9.455 7.612 17.067 17.067 17.067zM51.2 789.333c-28.058 0-51.2-23.142-51.2-51.2v-648.533c0-28.058 23.142-51.2 51.2-51.2h921.6c28.058 0 51.2 23.142 51.2 51.2v648.533c0 28.058-23.142 51.2-51.2 51.2h-102.4c-22.391 0-22.665-34.133 0-34.133h102.4c9.762 0 17.067-7.305 17.067-17.067v-648.533c0-9.762-7.305-17.067-17.067-17.067h-921.6c-9.762 0-17.067 7.305-17.067 17.067v648.533c0 9.762 7.305 17.067 17.067 17.067h102.4c22.938 0 22.528 34.133 0 34.133zM290.133 789.333c-22.187 0-22.528-34.133 0-34.133h443.733c22.391 0 22.801 34.133 0 34.133z" />
<glyph unicode="&#xe913;" glyph-name="mbri-camera" d="M512 618.667c-131.755 0-238.933-107.179-238.933-238.933s107.179-238.933 238.933-238.933 238.933 107.179 238.933 238.933-107.179 238.933-238.933 238.933zM512 584.533c113.323 0 204.8-91.477 204.8-204.8s-91.477-204.8-204.8-204.8-204.8 91.477-204.8 204.8 91.477 204.8 204.8 204.8zM153.6 857.6c-28.058 0-51.2-23.142-51.2-51.2v-34.133c0-23.074 34.133-22.187 34.133 0v34.133c0 9.762 7.305 17.067 17.067 17.067h170.667c9.762 0 17.067-7.305 17.067-17.067v-34.133c0-22.528 34.133-22.528 34.133 0v34.133c0 28.058-23.142 51.2-51.2 51.2zM802.133 652.8c-28.058 0-51.2-23.142-51.2-51.2s23.142-51.2 51.2-51.2h102.4c28.058 0 51.2 23.142 51.2 51.2s-23.142 51.2-51.2 51.2zM802.133 618.667h102.4c9.762 0 17.067-7.305 17.067-17.067s-7.305-17.067-17.067-17.067h-102.4c-9.762 0-17.067 7.305-17.067 17.067s7.305 17.067 17.067 17.067zM51.2 721.067c-28.058 0-51.2-23.142-51.2-51.2v-580.267c0-28.058 23.142-51.2 51.2-51.2h921.6c28.058 0 51.2 23.142 51.2 51.2v580.267c0 28.058-23.142 51.2-51.2 51.2zM51.2 686.933h921.6c9.762 0 17.067-7.305 17.067-17.067v-580.267c0-9.762-7.305-17.067-17.067-17.067h-921.6c-9.762 0-17.067 7.305-17.067 17.067v580.267c0 9.762 7.305 17.067 17.067 17.067z" />
<glyph unicode="&#xe914;" glyph-name="mbri-cart-add" d="M870.4 857.6c-84.651 0-153.6-68.949-153.6-153.6s68.949-153.6 153.6-153.6 153.6 68.949 153.6 153.6-68.949 153.6-153.6 153.6zM870.4 823.467c66.219 0 119.467-53.248 119.467-119.467s-53.248-119.467-119.467-119.467-119.467 53.248-119.467 119.467 53.248 119.467 119.467 119.467zM870.4 789.333c-9.455 0-17.067-7.612-17.067-17.067v-51.2h-51.2c-9.455 0-17.067-7.612-17.067-17.067s7.612-17.067 17.067-17.067h51.2v-51.2c0-9.455 7.612-17.067 17.067-17.067s17.067 7.612 17.067 17.067v51.2h51.2c9.455 0 17.067 7.612 17.067 17.067s-7.612 17.067-17.067 17.067h-51.2v51.2c0 9.455-7.612 17.067-17.067 17.067zM358.4 413.867h443.733c9.455 0 17.067-7.612 17.067-17.067s-7.612-17.067-17.067-17.067h-443.733c-9.455 0-17.067 7.612-17.067 17.067s7.612 17.067 17.067 17.067zM324.267 550.4h409.6c9.455 0 17.067-7.612 17.067-17.067s-7.612-17.067-17.067-17.067h-409.6c-9.455 0-17.067 7.612-17.067 17.067s7.612 17.067 17.067 17.067zM733.867 209.067c-46.933 0-85.333-38.4-85.333-85.333s38.4-85.333 85.333-85.333 85.333 38.4 85.333 85.333-38.4 85.333-85.333 85.333zM733.867 174.933c28.467 0 51.2-22.733 51.2-51.2s-22.733-51.2-51.2-51.2-51.2 22.733-51.2 51.2 22.733 51.2 51.2 51.2zM392.533 209.067c-46.933 0-85.333-38.4-85.333-85.333s38.4-85.333 85.333-85.333 85.333 38.4 85.333 85.333-38.4 85.333-85.333 85.333zM392.533 174.933c28.467 0 51.2-22.733 51.2-51.2s-22.733-51.2-51.2-51.2-51.2 22.733-51.2 51.2 22.733 51.2 51.2 51.2zM17.34 823.467c-22.869 0-23.108-34.133 0-34.133h122.607c2.526-12.117 21.845-104.277 44.851-212.651 12.22-57.549 24.713-116.258 34.748-162.679 10.001-46.421 17.237-79.428 20.070-89.873 4.506-16.862 8.738-36.011 21.163-52.702 12.356-16.657 34.133-28.194 63.488-28.194h477.594c29.355 0 51.132 11.537 63.556 28.194 12.39 16.725 16.589 35.84 21.163 52.736 2.97 11.332 7.646 37.649 13.995 70.656 6.246 33.109 13.653 71.441 20.48 100.591 5.632 20.924-29.218 30.037-33.178 7.714-7.031-30.174-14.575-68.676-20.89-101.854-6.315-33.212-11.844-62.532-13.38-68.267-4.642-17.271-8.977-32.256-15.599-41.165-6.622-8.943-14.336-14.473-36.113-14.473h-477.628c-21.777 0-29.491 5.53-36.181 14.473-6.588 8.875-10.923 23.893-15.565 41.131-1.707 6.588-9.557 41.882-19.593 88.235-10.001 46.353-22.528 104.994-34.714 162.611-24.439 115.132-47.787 226.099-47.787 226.099-1.638 7.851-8.602 13.517-16.725 13.517zM290.202 686.933c-22.699 0-22.426-34.133 0-34.133h341.060c22.938 0 22.426 34.133 0 34.133z" />
<glyph unicode="&#xe915;" glyph-name="mbri-cart-full" d="M613.376 891.733c-4.881-0.068-9.455-2.185-12.629-5.803l-108.203-124.245-72.26 57.788c-6.246 4.983-15.121 4.983-21.367 0l-85.641-68.028c-16.725-13.244 4.54-40.073 21.367-26.624l74.957 59.392 74.342-59.494c7.168-5.734 17.51-4.847 23.552 2.048l106.906 122.914 123.221-123.494c6.144-6.144 15.906-6.69 22.699-1.263l74.342 58.607 57.481-57.481c15.292-15.906 40.073 8.875 24.132 24.166l-68.267 68.267c-6.144 6.144-15.94 6.69-22.733 1.263l-74.342-58.573-125.338 125.611c-3.243 3.243-7.68 5.052-12.288 4.983zM324.267 516.267h546.133c9.455 0 17.067-7.612 17.067-17.067s-7.612-17.067-17.067-17.067h-546.133c-9.455 0-17.067 7.612-17.067 17.067s7.612 17.067 17.067 17.067zM16.725 789.333c-21.743 0-22.665-34.133 0-34.133h122.743c2.56-12.117 21.948-104.277 44.919-212.651 12.288-57.549 24.713-116.258 34.748-162.679s17.271-79.394 20.070-89.873c4.506-16.862 8.738-36.011 21.163-52.702 12.356-16.657 34.133-28.194 63.556-28.194h546.133c29.355 0 51.2 11.537 63.625 28.194 12.39 16.725 16.657 35.84 21.163 52.736 4.915 18.33 18.534 76.971 32.358 136.294s27.887 119.33 32.085 135.168c5.222 19.285 6.929 39.424 0.785 57.685-6.144 18.193-24.576 33.69-47.616 33.69h-682.667c-21.641 0-22.391-34.133 0-34.133h682.667c11.127 0 12.493-2.389 15.258-10.581 2.799-8.124 2.594-23.006-1.365-37.82-4.915-18.295-18.5-76.937-32.358-136.26s-27.921-119.364-32.154-135.168c-4.642-17.271-8.875-32.256-15.531-41.165-6.656-8.943-14.473-14.473-36.284-14.473h-546.133c-21.845 0-29.559 5.53-36.181 14.473-6.656 8.875-10.923 23.893-15.531 41.131-1.775 6.554-9.66 41.882-19.695 88.235-10.001 46.353-22.528 104.994-34.816 162.611-24.337 115.098-47.684 226.065-47.684 226.065-1.707 7.885-8.636 13.551-16.725 13.551zM358.4 379.733h477.867c9.455 0 17.067-7.612 17.067-17.067s-7.612-17.067-17.067-17.067h-477.867c-9.455 0-17.067 7.612-17.067 17.067s7.612 17.067 17.067 17.067zM802.133 174.933c-46.933 0-85.333-38.4-85.333-85.333s38.4-85.333 85.333-85.333 85.333 38.4 85.333 85.333-38.4 85.333-85.333 85.333zM802.133 140.8c28.467 0 51.2-22.733 51.2-51.2s-22.733-51.2-51.2-51.2-51.2 22.733-51.2 51.2 22.733 51.2 51.2 51.2zM392.533 174.933c-46.933 0-85.333-38.4-85.333-85.333s38.4-85.333 85.333-85.333 85.333 38.4 85.333 85.333-38.4 85.333-85.333 85.333zM392.533 140.8c28.467 0 51.2-22.733 51.2-51.2s-22.733-51.2-51.2-51.2-51.2 22.733-51.2 51.2 22.733 51.2 51.2 51.2z" />
<glyph unicode="&#xe916;" glyph-name="mbri-cash" d="M187.733 789.333c-22.357 0-22.528-34.475 0-34.133h750.933c9.762 0 17.067-7.305 17.067-17.067v-443.733c0-22.528 34.133-22.528 34.133 0v443.733c0 28.058-23.142 51.2-51.2 51.2h-750.933zM119.467 721.067c-22.323 0-22.323-34.133 0-34.133h750.933c9.762 0 17.067-7.305 17.067-17.067v-443.733c0-22.699 34.475-22.528 34.133 0v443.733c0 28.058-23.142 51.2-51.2 51.2h-750.933zM51.2 652.8c-28.058 0-51.2-23.142-51.2-51.2v-409.6c0-28.058 23.142-51.2 51.2-51.2h750.933c28.058 0 51.2 23.142 51.2 51.2v409.6c0 28.058-23.142 51.2-51.2 51.2h-750.933zM51.2 618.667h750.933c9.762 0 17.067-7.305 17.067-17.067v-409.6c0-9.762-7.305-17.067-17.067-17.067h-750.933c-9.762 0-17.067 7.305-17.067 17.067v409.6c0 9.762 7.305 17.067 17.067 17.067zM85.333 584.533c-9.421 0-17.067-7.646-17.067-17.067v-68.267c0-22.938 34.133-22.391 34.133 0v51.2h51.2c22.938 0 22.391 34.133 0 34.133h-68.267zM426.667 584.533c-103.492 0-187.733-84.241-187.733-187.733s84.241-187.733 187.733-187.733 187.733 84.241 187.733 187.733-84.241 187.733-187.733 187.733zM699.733 584.533c-22.391 0-22.938-34.133 0-34.133h51.2v-51.2c0-22.391 34.133-22.938 34.133 0v68.267c0 9.421-7.646 17.067-17.067 17.067h-68.267zM426.667 550.4c84.992 0 153.6-68.608 153.6-153.6s-68.608-153.6-153.6-153.6-153.6 68.608-153.6 153.6 68.608 153.6 153.6 153.6zM426.667 516.267c-9.455 0-17.067-7.612-17.067-17.067v-20.275c-19.729-7.168-34.133-25.941-34.133-47.991 0-27.989 23.211-51.2 51.2-51.2 9.557 0 17.067-7.236 17.067-17.067s-7.509-17.067-17.067-17.067h-34.133c-11.537 0.171-17.067-8.465-17.067-17.067s5.53-17.237 17.067-17.067h17.067v-17.067c0-9.455 7.612-17.067 17.067-17.067s17.067 7.612 17.067 17.067v20.275c19.729 7.168 34.133 25.941 34.133 47.991 0 27.989-23.211 51.2-51.2 51.2-9.557 0-17.067 7.236-17.067 17.067s7.509 17.067 17.067 17.067h34.133c11.537-0.171 17.067 8.465 17.067 17.067s-5.53 17.237-17.067 17.067h-17.067v17.067c0 9.455-7.612 17.067-17.067 17.067zM85.333 311.398c-8.533 0.068-17.067-5.53-17.067-16.998v-68.267c0-9.421 7.646-17.067 17.067-17.067h68.267c22.391 0 22.938 34.133 0 34.133h-51.2v51.2c0 11.196-8.533 16.93-17.067 16.998zM768 311.398c-8.533-0.068-17.067-5.803-17.067-16.998v-51.2h-51.2c-22.938 0-22.391-34.133 0-34.133h68.267c9.421 0 17.067 7.646 17.067 17.067v68.267c0 11.469-8.533 17.067-17.067 16.998z" />
<glyph unicode="&#xe917;" glyph-name="mbri-change-style" d="M153.6 209.067c-55.091 0-88.644-30.174-103.765-63.727-15.258-33.553-15.701-69.905-15.701-89.873 0-16.964-3.891-38.912-9.728-56.798-3.857-14.268-10.411-27.17-15.804-30.788-15.189-8.738-8.977-31.915 8.533-31.881h119.398c48.299 0 83.866 24.849 105.472 53.521 21.572 28.672 31.061 60.075 31.061 83.012 0 17.92-0.341 50.517-15.94 80.555-15.599 30.174-49.152 55.979-103.526 55.979zM153.6 174.933c44.612 0 62.327-16.555 73.182-37.547 10.854-20.958 12.151-48.060 12.151-64.853 0-11.776-7.509-40.107-24.235-62.464-16.896-22.357-41.199-39.936-78.165-39.936h-87.381c2.628 5.803 5.461 11.332 7.646 17.92 6.929 21.163 11.469 45.466 11.469 67.413 0 18.944 1.365 50.859 12.629 75.878 11.366 24.986 28.877 43.588 72.704 43.588zM1004.339 959.932c-3.482 0.205-6.212-0.205-8.977-0.683-5.53-1.126-11.264-3.072-18.193-5.7-13.79-5.291-31.744-13.653-53.453-24.986-43.418-22.528-101.82-56.593-167.595-99.055-131.652-84.992-292.659-203.503-420.011-330.889-44.715-44.715-63.386-92.365-62.976-135.578 0.41-43.247 19.456-81.169 46.080-107.861 26.726-26.726 64.273-45.67 107.52-46.080s91.238 18.193 135.953 62.942c127.386 127.317 245.897 288.358 330.854 419.977 42.496 65.809 76.459 124.245 99.089 167.697 11.264 21.743 19.661 39.697 24.917 53.487 2.731 6.895 4.608 12.629 5.7 18.193 0.546 2.799 0.922 5.53 0.683 9.011-0.137 3.482-0.751 8.67-5.803 13.722-5.12 5.12-10.24 5.666-13.756 5.871zM982.426 918.391c-4.71-11.264-10.752-24.849-20.139-43.008-21.845-42.052-55.467-99.772-97.451-164.864-83.968-130.048-201.66-289.69-326.315-414.379-39.595-39.595-78.438-53.248-111.855-52.907-33.451 0.341-62.327 15.019-83.354 36.079-21.026 20.992-35.84 50.654-36.113 84.070-0.341 33.382 13.312 71.509 52.975 111.104 124.689 124.689 284.262 242.347 414.379 326.315 65.058 41.984 122.778 75.639 164.864 97.485 18.091 9.455 31.642 15.462 43.008 20.139z" />
<glyph unicode="&#xe918;" glyph-name="mbri-chat" d="M153.122 448h342.289c9.216 0 16.589-7.407 16.589-16.589 0-9.216-7.407-16.589-16.589-16.589h-342.289c-9.216 0-16.589 7.373-16.589 16.589s7.407 16.589 16.589 16.589zM153.6 584.533h716.8c9.455 0 17.067-7.612 17.067-17.067s-7.612-17.067-17.067-17.067h-716.8c-9.455 0-17.067 7.612-17.067 17.067s7.612 17.067 17.067 17.067zM153.6 721.067h716.8c9.455 0 17.067-7.612 17.067-17.067s-7.612-17.067-17.067-17.067h-716.8c-9.455 0-17.067 7.612-17.067 17.067s7.612 17.067 17.067 17.067zM51.2 925.867c-28.058 0-51.2-23.142-51.2-51.2v-648.533c0-28.058 23.142-51.2 51.2-51.2h119.467v-153.6c0-11.878 1.707-22.084 6.281-30.993 4.506-8.875 12.766-16.384 22.46-18.944 19.388-5.12 36.727 5.598 51.712 20.924 52.053 53.248 144.282 144.589 182.613 182.613h539.068c28.058 0 51.2 23.142 51.2 51.2v648.533c0 28.058-23.142 51.2-51.2 51.2zM51.2 891.733h921.6c9.762 0 17.067-7.305 17.067-17.067v-648.533c0-9.762-7.305-17.067-17.067-17.067h-546.133c-4.506 0-8.806-1.775-12.015-4.949-36.181-35.84-134.007-132.779-187.904-187.904-18.842-18.842-21.948-6.758-21.948 5.12v170.667c0 9.421-7.646 17.067-17.067 17.067h-136.533c-9.762 0-17.067 7.305-17.067 17.067v648.533c0 9.762 7.305 17.067 17.067 17.067z" />
<glyph unicode="&#xe919;" glyph-name="mbri-clock" d="M477.867 55.467v34.133c0 10.24 6.827 17.067 17.067 17.067s17.067-6.827 17.067-17.067v-34.133c0-10.24-6.827-17.067-17.067-17.067s-17.067 6.827-17.067 17.067zM477.867 840.533v34.133c0 10.24 6.827 17.067 17.067 17.067s17.067-6.827 17.067-17.067v-34.133c0-10.24-6.827-17.067-17.067-17.067s-17.067 6.827-17.067 17.067zM85.333 482.133h34.133c10.24 0 17.067-6.827 17.067-17.067s-6.827-17.067-17.067-17.067h-34.133c-10.24 0-17.067 6.827-17.067 17.067s6.827 17.067 17.067 17.067zM870.4 482.133h34.133c10.24 0 17.067-6.827 17.067-17.067s-6.827-17.067-17.067-17.067h-34.133c-10.24 0-17.067 6.827-17.067 17.067s6.827 17.067 17.067 17.067zM494.933 789.333c-10.24 0-17.067-6.827-17.067-17.067v-221.867c-34.133-10.24-68.267-44.373-68.267-85.333 0-47.787 34.133-85.333 85.333-85.333 40.96 0 75.093 34.133 81.92 68.267h153.6c10.24 0 17.067 6.827 17.067 17.067s-6.827 17.067-17.067 17.067h-150.187c-10.24 34.133-34.133 58.027-68.267 68.267v218.453c0 10.24-6.827 17.067-17.067 17.067zM494.933 516.267c27.307 0 51.2-23.893 51.2-51.2s-23.893-51.2-51.2-51.2-51.2 23.893-51.2 51.2 23.893 51.2 51.2 51.2zM494.933 960c-273.067 0-494.933-221.867-494.933-494.933s221.867-494.933 494.933-494.933 494.933 221.867 494.933 494.933-221.867 494.933-494.933 494.933zM494.933 925.867c256 0 460.8-204.8 460.8-460.8s-204.8-460.8-460.8-460.8-460.8 204.8-460.8 460.8 204.8 460.8 460.8 460.8z" />
<glyph unicode="&#xe91a;" glyph-name="mbri-close" d="M1006.387 960c-4.437-0.137-8.602-1.946-11.708-5.12l-408.815-408.917c-16.725-16.043 8.021-40.858 24.098-24.132l408.781 408.917c11.093 10.854 3.413 29.252-12.39 29.252zM426.257 379.733c-4.437-0.137-8.533-1.98-11.605-5.12l-409.122-409.259c-16.589-15.94 7.953-40.482 23.893-23.893l409.122 409.259c11.093 10.684 3.174 29.013-12.288 29.013zM17.067 960c-0.010 0-0.022 0-0.035 0-9.426 0-17.067-7.641-17.067-17.067 0-4.823 2.001-9.179 5.218-12.283l989.462-989.36c3.139-3.5 7.675-5.693 12.724-5.693 9.426 0 17.067 7.641 17.067 17.067 0 5.049-2.192 9.585-5.677 12.71l-989.405 989.437c-3.106 3.201-7.448 5.188-12.255 5.188-0.012 0-0.023 0-0.035 0z" />
<glyph unicode="&#xe91b;" glyph-name="mbri-cloud" d="M563.2 789.333c-119.808-0.171-228.215-67.345-284.331-172.373-7.578 0.683-15.155 1.707-22.869 1.707-141.585 0-256-114.825-256-256s114.825-256 256-256h597.333c94.071 0 170.667 76.595 170.667 170.667 0 81.852-59.187 149.265-137.899 165.069 0.546 7.509 1.365 16.862 1.365 22.665 0 178.176-145.408 324.267-324.267 324.267zM563.2 755.2c160.427 0 290.133-129.707 290.133-290.133-0.068-10.991-0.751-21.948-2.048-32.87-1.195-9.557 5.7-18.091 15.258-19.046 70.076-6.793 123.324-65.434 123.324-135.817 0-75.605-60.928-136.533-136.533-136.533h-597.333c-122.743 0-221.867 99.123-221.867 221.867 0 122.675 99.055 221.798 221.73 221.867 9.728-0.068 19.456-0.785 29.082-2.15 7.305-1.024 14.473 2.731 17.749 9.421 48.435 99.84 149.47 163.226 260.506 163.396z" />
<glyph unicode="&#xe91c;" glyph-name="mbri-code" d="M665.532 721.067c-6.212 0-11.947-3.413-14.916-8.875l-306.756-545.724c-11.196-19.797 18.5-36.591 29.696-16.794l306.722 545.792c6.69 11.332-1.536 25.6-14.746 25.6zM768.956 652.8c3.823-0.205 7.509-1.707 10.377-4.267l238.729-204.663c7.919-6.827 7.919-19.115 0-25.941l-238.729-204.629c-16.384-14.677-38.912 12.015-22.255 25.839l223.71 191.761-223.71 191.761c-12.561 10.513-4.506 30.106 11.878 30.106zM255.044 652.8c-3.823-0.205-7.509-1.707-10.377-4.267l-238.729-204.629c-7.919-6.827-7.919-19.115 0-25.941l238.729-204.629c16.384-14.677 38.912 12.015 22.255 25.839l-223.71 191.761 223.71 191.761c12.561 10.513 4.506 30.106-11.878 30.106z" />
<glyph unicode="&#xe91d;" glyph-name="mbri-contact-form" d="M426.667 448h443.733c9.455 0 17.067-7.612 17.067-17.067s-7.612-17.067-17.067-17.067h-443.733c-9.455 0-17.067 7.612-17.067 17.067s7.612 17.067 17.067 17.067zM426.667 345.6h443.733c9.455 0 17.067-7.612 17.067-17.067s-7.612-17.067-17.067-17.067h-443.733c-9.455 0-17.067 7.612-17.067 17.067s7.612 17.067 17.067 17.067zM426.667 550.4h443.733c9.455 0 17.067-7.612 17.067-17.067s-7.612-17.067-17.067-17.067h-443.733c-9.455 0-17.067 7.612-17.067 17.067s7.612 17.067 17.067 17.067zM153.6 584.533c-28.058 0-51.2-23.142-51.2-51.2v-204.8c0-28.058 23.142-51.2 51.2-51.2h136.533c28.058 0 51.2 23.142 51.2 51.2v204.8c0 28.058-23.142 51.2-51.2 51.2zM153.6 550.4h136.533c9.762 0 17.067-7.305 17.067-17.067v-204.8c0-9.762-7.305-17.067-17.067-17.067h-136.533c-9.762 0-17.067 7.305-17.067 17.067v204.8c0 9.762 7.305 17.067 17.067 17.067zM221.867 891.733c9.455 0 17.067-7.612 17.067-17.067v-136.533c0-9.455-7.612-17.067-17.067-17.067s-17.067 7.612-17.067 17.067v136.533c0 9.455 7.612 17.067 17.067 17.067zM802.133 891.733c9.455 0 17.067-7.612 17.067-17.067v-136.533c0-9.455-7.612-17.067-17.067-17.067s-17.067 7.612-17.067 17.067v136.533c0 9.455 7.612 17.067 17.067 17.067zM51.2 823.467c-28.058 0-51.2-23.142-51.2-51.2v-682.667c0-28.058 23.142-51.2 51.2-51.2h921.6c28.058 0 51.2 23.142 51.2 51.2v682.667c0 28.058-23.142 51.2-51.2 51.2h-102.4c-22.528 0-22.665-34.133 0-34.133h102.4c9.762 0 17.067-7.305 17.067-17.067v-682.667c0-9.762-7.305-17.067-17.067-17.067h-921.6c-9.762 0-17.067 7.305-17.067 17.067v682.667c0 9.762 7.305 17.067 17.067 17.067h102.4c22.869 0 22.323 34.133 0 34.133zM290.133 823.467c-21.504 0-23.313-34.133 0-34.133h443.733c22.528 0 22.528 34.133 0 34.133z" />
<glyph unicode="&#xe91e;" glyph-name="mbri-credit-card" d="M768 311.467c-46.933 0-85.333-38.4-85.333-85.333s38.4-85.333 85.333-85.333c19.593 0 36.181 8.397 51.2 20.48 15.019-12.083 31.607-20.48 51.2-20.48 46.933 0 85.333 38.4 85.333 85.333s-38.4 85.333-85.333 85.333c-19.593 0-36.181-8.192-51.2-20.309-15.019 12.117-31.607 20.275-51.2 20.309zM768 277.333c14.677 0 28.672-6.349 38.4-17.408 6.827-7.68 18.773-7.68 25.6 0 9.728 11.059 23.689 17.408 38.4 17.408 28.467 0 51.2-22.733 51.2-51.2s-22.733-51.2-51.2-51.2c-14.677 0-28.672 6.349-38.4 17.408-6.827 7.68-18.773 7.68-25.6 0-9.728-11.059-23.689-17.408-38.4-17.408-28.467 0-51.2 22.733-51.2 51.2s22.733 51.2 51.2 51.2zM529.067 243.2h68.267c9.455 0 17.067-7.612 17.067-17.067s-7.612-17.067-17.067-17.067h-68.267c-9.455 0-17.067 7.612-17.067 17.067s7.612 17.067 17.067 17.067zM392.533 243.2h68.267c9.455 0 17.067-7.612 17.067-17.067s-7.612-17.067-17.067-17.067h-68.267c-9.455 0-17.067 7.612-17.067 17.067s7.612 17.067 17.067 17.067zM256 243.2h68.267c9.455 0 17.067-7.612 17.067-17.067s-7.612-17.067-17.067-17.067h-68.267c-9.455 0-17.067 7.612-17.067 17.067s7.612 17.067 17.067 17.067zM494.933 413.867h409.6c9.455 0 17.067-7.612 17.067-17.067s-7.612-17.067-17.067-17.067h-409.6c-9.455 0-17.067 7.612-17.067 17.067s7.612 17.067 17.067 17.067zM665.6 516.267h238.933c9.455 0 17.067-7.612 17.067-17.067s-7.612-17.067-17.067-17.067h-238.933c-9.455 0-17.067 7.612-17.067 17.067s7.612 17.067 17.067 17.067zM494.933 516.267h102.4c9.455 0 17.067-7.612 17.067-17.067s-7.612-17.067-17.067-17.067h-102.4c-9.455 0-17.067 7.612-17.067 17.067s7.612 17.067 17.067 17.067zM256 550.4c-9.421 0-17.067-7.646-17.067-17.067v-170.667c0-9.421 7.646-17.067 17.067-17.067h136.533c9.421 0 17.067 7.646 17.067 17.067v170.667c0 9.421-7.646 17.067-17.067 17.067zM273.067 516.267h102.4v-136.533h-102.4zM221.867 618.667c-28.058 0-51.2-23.142-51.2-51.2v-443.733c0-28.058 23.142-51.2 51.2-51.2h750.933c28.058 0 51.2 23.142 51.2 51.2v443.733c0 28.058-23.142 51.2-51.2 51.2zM221.867 584.533h750.933c9.762 0 17.067-7.305 17.067-17.067v-443.733c0-9.762-7.305-17.067-17.067-17.067h-750.933c-9.762 0-17.067 7.305-17.067 17.067v443.733c0 9.762 7.305 17.067 17.067 17.067zM51.2 823.467c-28.058 0-51.2-23.142-51.2-51.2v-443.733c0-28.058 23.142-51.2 51.2-51.2h68.267c22.938 0 22.289 34.133 0 34.133h-68.267c-9.762 0-17.067 7.305-17.067 17.067v221.867h51.2c9.455 0 17.067 7.612 17.067 17.067s-7.612 17.067-17.067 17.067h-51.2v102.4h819.2v-17.067c0-22.938 34.133-22.426 34.133 0v102.4c0 28.058-23.142 51.2-51.2 51.2zM51.2 789.333h785.067c9.762 0 17.067-7.305 17.067-17.067v-51.2h-819.2v51.2c0 9.762 7.305 17.067 17.067 17.067z" />
<glyph unicode="&#xe91f;" glyph-name="mbri-cursor-click" d="M390.758 618.667c-13.653 0.341-27.17-2.219-36.932-11.776-9.796-9.557-12.732-23.040-12.493-36.864 0.273-13.79 3.174-29.491 8.533-48.469l154.112-545.655c3.004-10.581 6.997-19.627 13.312-26.761 6.281-7.1 15.258-11.947 24.371-12.971 18.159-1.911 33.28 7.782 46.831 20.309l107.315 99.328c8.329 8.329 15.974 5.939 21.709 0.205l111.002-106.564c9.694-9.284 22.255-13.073 34.475-13.141 12.186-0.068 24.917 3.755 34.577 13.38l112.845 112.811c9.694 9.694 13.517 22.357 13.551 34.679 0 12.288-3.755 25.259-13.824 34.816l-110.933 106.598c-6.042 6.007-5.666 14.882 0.444 20.992l103.322 107.247c12.902 13.449 22.801 28.809 20.719 47.104-1.024 9.114-5.939 18.091-13.073 24.371-7.168 6.281-16.213 10.24-26.829 13.312l-545.314 158.515c-18.569 5.359-34.065 8.090-47.718 8.533zM389.734 584.533c8.875-0.205 22.596-2.321 39.936-7.373l545.314-158.515c22.050-6.417 12.356-19.183 3.482-28.058l-103.322-107.315c-9.353-9.694-13.21-22.187-13.312-34.475-0.068-12.22 3.755-25.259 13.756-34.816l110.933-106.496c7.782-7.748 3.243-17.34-0.239-20.821l-112.811-112.777c-4.779-5.598-15.906-5.12-21.265 0.205l-110.933 106.496c-9.728 9.318-22.357 13.039-34.475 12.971-12.049 0-24.439-3.686-34.133-12.698l-107.349-99.328c-16.384-13.517-24.303-11.093-28.331 3.174l-154.18 545.69c-5.018 17.749-7.168 31.471-7.339 40.277 0 13.892 6.758 13.892 14.268 13.892zM153.532 72.533c-15.36 0-22.528 18.773-12.083 29.116l68.267 68.267c15.599 15.531 39.765-8.533 24.235-24.132l-68.369-68.267c-3.174-3.311-7.407-4.983-12.049-4.983zM870.4 823.467c15.36 0 22.528-18.773 12.151-29.116l-68.267-68.267c-15.599-15.531-39.765 8.533-24.235 24.132l68.369 68.267c3.174 3.311 7.305 4.983 11.947 4.983zM153.498 823.467c-15.36 0-22.46-18.773-12.049-29.116l68.267-68.267c15.599-15.531 39.765 8.533 24.235 24.132l-68.369 68.267c-3.174 3.277-7.407 4.983-12.049 4.983zM0 465.067c0 9.455 7.612 17.067 17.067 17.067h102.4c9.455 0 17.067-7.612 17.067-17.067s-7.612-17.067-17.067-17.067h-102.4c-9.455 0-17.067 7.612-17.067 17.067zM494.933 960c9.455 0 17.067-7.612 17.067-17.067v-102.4c0-9.455-7.612-17.067-17.067-17.067s-17.067 7.612-17.067 17.067v102.4c0 9.455 7.612 17.067 17.067 17.067z" />
<glyph unicode="&#xe920;" glyph-name="mbri-cust-feedback" d="M699.733 652.8s-10.24 0-13.653-6.827l-184.32-187.733-20.48-10.24c-6.827 0-13.653 0-20.48 10.24l-85.333 85.333c-20.48 17.067-44.373-6.827-27.307-23.893l81.92-81.92c13.653-13.653 34.133-20.48 47.787-20.48 17.067 0 34.133 6.827 47.787 20.48l191.147 180.907c6.827 13.653 0 34.133-17.067 34.133zM51.2 925.867c-27.307 0-51.2-23.893-51.2-51.2v-648.533c0-27.307 23.893-51.2 51.2-51.2h119.467v-153.6c0-10.24 0-20.48 6.827-34.133 0-6.827 13.653-13.653 20.48-17.067 20.48 0 34.133 6.827 54.613 23.893l180.907 180.907h539.307c27.307 0 51.2 23.893 51.2 51.2v648.533c0 27.307-23.893 51.2-51.2 51.2zM51.2 891.733h921.6c10.24 0 17.067-6.827 17.067-17.067v-648.533c0-10.24-6.827-17.067-17.067-17.067h-559.787l-184.32-194.56c-17.067-17.067-20.48 0-20.48 6.827v170.667c0 10.24-6.827 17.067-17.067 17.067h-136.533c-10.24 0-17.067 6.827-17.067 17.067v648.533c0 10.24 6.827 17.067 17.067 17.067z" />
<glyph unicode="&#xe921;" glyph-name="mbri-database" d="M51.2 960c-28.058 0-51.2-23.142-51.2-51.2v-853.333c0-28.058 23.142-51.2 51.2-51.2h51.2v-17.067c0-28.058 23.142-51.2 51.2-51.2h68.267c28.058 0 51.2 23.142 51.2 51.2v17.067h477.867v-17.067c0-28.058 23.142-51.2 51.2-51.2h68.267c28.058 0 51.2 23.142 51.2 51.2v17.067h51.2c28.058 0 51.2 23.142 51.2 51.2v853.333c0 28.058-23.142 51.2-51.2 51.2h-921.6zM51.2 925.867h921.6c9.762 0 17.067-7.305 17.067-17.067v-853.333c0-9.762-7.305-17.067-17.067-17.067h-921.6c-9.762 0-17.067 7.305-17.067 17.067v853.333c0 9.762 7.305 17.067 17.067 17.067zM170.667 823.467c-18.842 0-34.133-15.292-34.133-34.133s15.292-34.133 34.133-34.133 34.133 15.292 34.133 34.133-15.292 34.133-34.133 34.133zM307.2 823.467c-18.842 0-34.133-15.292-34.133-34.133s15.292-34.133 34.133-34.133 34.133 15.292 34.133 34.133-15.292 34.133-34.133 34.133zM443.733 823.467c-18.842 0-34.133-15.292-34.133-34.133s15.292-34.133 34.133-34.133 34.133 15.292 34.133 34.133-15.292 34.133-34.133 34.133zM119.467 652.8c-9.455 0-17.067-7.612-17.067-17.067s7.612-17.067 17.067-17.067h785.067c9.455 0 17.067 7.612 17.067 17.067s-7.612 17.067-17.067 17.067h-785.067zM307.2 516.267c-18.842 0-34.133-15.292-34.133-34.133s15.292-34.133 34.133-34.133 34.133 15.292 34.133 34.133-15.292 34.133-34.133 34.133zM443.733 516.267c-18.842 0-34.133-15.292-34.133-34.133s15.292-34.133 34.133-34.133 34.133 15.292 34.133 34.133-15.292 34.133-34.133 34.133zM580.267 516.267c-18.842 0-34.133-15.292-34.133-34.133s15.292-34.133 34.133-34.133 34.133 15.292 34.133 34.133-15.292 34.133-34.133 34.133zM119.467 345.6c-9.455 0-17.067-7.612-17.067-17.067s7.612-17.067 17.067-17.067h785.067c9.455 0 17.067 7.612 17.067 17.067s-7.612 17.067-17.067 17.067h-785.067zM170.667 209.067c-18.842 0-34.133-15.292-34.133-34.133s15.292-34.133 34.133-34.133 34.133 15.292 34.133 34.133-15.292 34.133-34.133 34.133zM307.2 209.067c-18.842 0-34.133-15.292-34.133-34.133s15.292-34.133 34.133-34.133 34.133 15.292 34.133 34.133-15.292 34.133-34.133 34.133zM443.733 209.067c-18.842 0-34.133-15.292-34.133-34.133s15.292-34.133 34.133-34.133 34.133 15.292 34.133 34.133-15.292 34.133-34.133 34.133zM136.533 4.267h102.4v-17.067c0-9.762-7.305-17.067-17.067-17.067h-68.267c-9.762 0-17.067 7.305-17.067 17.067v17.067zM785.067 4.267h102.4v-17.067c0-9.762-7.305-17.067-17.067-17.067h-68.267c-9.762 0-17.067 7.305-17.067 17.067v17.067z" />
<glyph unicode="&#xe922;" glyph-name="mbri-delivery" d="M528.384 550.4c-4.437-0.137-8.704-1.98-11.844-5.188l-90.044-89.771-55.467 55.296c-15.531 16.179-40.619-8.806-24.405-24.303l67.686-67.516c6.724-6.724 17.647-6.724 24.405 0l102.229 101.956c11.264 10.923 2.97 29.525-12.527 29.525zM17.067 413.867h102.4c9.455 0 17.067-7.612 17.067-17.067s-7.612-17.067-17.067-17.067h-102.4c-9.455 0-17.067 7.612-17.067 17.067s7.612 17.067 17.067 17.067zM17.067 550.4h102.4c9.455 0 17.067-7.612 17.067-17.067s-7.612-17.067-17.067-17.067h-102.4c-9.455 0-17.067 7.612-17.067 17.067s7.612 17.067 17.067 17.067zM17.067 686.933h102.4c9.455 0 17.067-7.612 17.067-17.067s-7.612-17.067-17.067-17.067h-102.4c-9.455 0-17.067 7.612-17.067 17.067s7.612 17.067 17.067 17.067zM836.267 311.467c-46.933 0-85.333-38.4-85.333-85.333s38.4-85.333 85.333-85.333 85.333 38.4 85.333 85.333-38.4 85.333-85.333 85.333zM836.267 277.333c28.467 0 51.2-22.733 51.2-51.2s-22.733-51.2-51.2-51.2-51.2 22.733-51.2 51.2 22.733 51.2 51.2 51.2zM392.533 311.467c-46.933 0-85.333-38.4-85.333-85.333s38.4-85.333 85.333-85.333 85.333 38.4 85.333 85.333-38.4 85.333-85.333 85.333zM392.533 277.333c28.467 0 51.2-22.733 51.2-51.2s-22.733-51.2-51.2-51.2-51.2 22.733-51.2 51.2 22.733 51.2 51.2 51.2zM221.867 755.2c-28.058 0-51.2-23.142-51.2-51.2v-375.467c0-28.058 23.142-51.2 51.2-51.2h68.267c23.074-0.341 23.074 34.475 0 34.133h-68.267c-9.762 0-17.067 7.305-17.067 17.067v375.467c0 9.762 7.305 17.067 17.067 17.067h443.733c9.762 0 17.067-7.305 17.067-17.067v-392.533h-187.733c-22.528 0-22.118-34.475 0-34.133h238.933c22.528 0 22.323 34.133 0 34.133h-17.067v307.2h144.282l128.785-201.25v-88.883c0-9.762-7.305-17.067-17.067-17.067h-34.133c-22.323 0-22.323-34.133 0-34.133h34.133c28.058 0 51.2 23.142 51.2 51.2v93.867c0 3.243-0.922 6.485-2.662 9.216l-136.533 213.333c-3.14 4.881-8.533 7.851-14.404 7.851h-153.6v51.2c0 28.058-23.142 51.2-51.2 51.2z" />
<glyph unicode="&#xe923;" glyph-name="mbri-desktop" d="M546.133 277.333c0-18.851-15.282-34.133-34.133-34.133s-34.133 15.282-34.133 34.133c0 18.851 15.282 34.133 34.133 34.133s34.133-15.282 34.133-34.133zM85.333 379.733h853.333c9.455 0 17.067-7.612 17.067-17.067s-7.612-17.067-17.067-17.067h-853.333c-9.455 0-17.067 7.612-17.067 17.067s7.612 17.067 17.067 17.067zM51.2 857.6c-28.058 0-51.2-23.142-51.2-51.2v-580.267c0-28.058 23.142-51.2 51.2-51.2h358.4v-102.4h-85.333c-9.455 0-17.067-7.612-17.067-17.067s7.612-17.067 17.067-17.067h375.467c9.455 0 17.067 7.612 17.067 17.067s-7.612 17.067-17.067 17.067h-85.333v102.4h358.4c28.058 0 51.2 23.142 51.2 51.2v580.267c0 28.058-23.142 51.2-51.2 51.2zM51.2 823.467h921.6c9.762 0 17.067-7.305 17.067-17.067v-580.267c0-9.762-7.305-17.067-17.067-17.067h-921.6c-9.762 0-17.067 7.305-17.067 17.067v580.267c0 9.762 7.305 17.067 17.067 17.067zM443.733 174.933h136.533v-102.4h-136.533z" />
<glyph unicode="&#xe924;" glyph-name="mbri-devices" d="M136.533 584.533c0-18.851-15.282-34.133-34.133-34.133s-34.133 15.282-34.133 34.133c0 18.851 15.282 34.133 34.133 34.133s34.133-15.282 34.133-34.133zM256 209.067c-22.869 0-42.189-15.428-48.674-36.284l-90.658-15.121c-8.26-1.365-14.268-8.533-14.268-16.862v-102.4c0-8.363 6.007-15.497 14.268-16.862l90.658-15.121c6.485-20.821 25.805-36.284 48.674-36.284h136.533c22.869 0 42.189 15.428 48.674 36.284l90.658 15.121c8.26 1.365 14.268 8.533 14.268 16.862v102.4c0 8.363-6.007 15.497-14.268 16.862l-90.658 15.155c-6.485 20.787-25.805 36.25-48.674 36.25zM256 174.933h136.533c9.762 0 17.067-7.305 17.067-17.067v-136.533c0-9.762-7.305-17.067-17.067-17.067h-136.533c-9.762 0-17.067 7.305-17.067 17.067v136.533c0 9.762 7.305 17.067 17.067 17.067zM204.8 137.66v-96.119l-68.267 11.332v73.455zM443.733 137.66l68.267-11.332v-73.455l-68.267-11.332zM187.733 857.6c-9.421 0-17.067-7.646-17.067-17.067v-512c0-9.421 7.646-17.067 17.067-17.067h375.467c22.869 0 22.323 34.133 0 34.133h-358.4v477.867h614.4v-153.6c0-22.528 34.133-22.869 34.133 0v170.667c0 9.421-7.646 17.067-17.067 17.067zM51.2 925.867c-28.058 0-51.2-23.142-51.2-51.2v-580.267c0-28.058 23.142-51.2 51.2-51.2h512c22.869 0 22.528 34.133 0 34.133h-512c-9.762 0-17.067 7.305-17.067 17.067v580.267c0 9.762 7.305 17.067 17.067 17.067h819.2c9.762 0 17.067-7.305 17.067-17.067v-204.8c0-23.108 34.133-22.528 34.133 0v204.8c0 28.058-23.142 51.2-51.2 51.2zM768 550.4h102.4c9.455 0 17.067-7.612 17.067-17.067s-7.612-17.067-17.067-17.067h-102.4c-9.455 0-17.067 7.612-17.067 17.067s7.612 17.067 17.067 17.067zM665.6 618.667c-28.058 0-51.2-23.142-51.2-51.2v-546.133c0-28.058 23.142-51.2 51.2-51.2h307.2c28.058 0 51.2 23.142 51.2 51.2v546.133c0 28.058-23.142 51.2-51.2 51.2zM665.6 584.533h307.2c9.762 0 17.067-7.305 17.067-17.067v-546.133c0-9.762-7.305-17.067-17.067-17.067h-307.2c-9.762 0-17.067 7.305-17.067 17.067v546.133c0 9.762 7.305 17.067 17.067 17.067zM819.2 106.667c18.91 0 34.133-15.223 34.133-34.133s-15.223-34.133-34.133-34.133-34.133 15.223-34.133 34.133 15.223 34.133 34.133 34.133z" />
<glyph unicode="&#xe925;" glyph-name="mbri-down" d="M494.933 960c-9.421-0.137-17.203-7.646-17.067-17.067v-887.467c0-22.528 34.133-22.665 34.133 0v887.467c0.137 9.626-7.441 17.203-17.067 17.067zM17.067 448c-15.36 0-22.63-18.91-12.083-29.15l477.867-477.867c6.69-6.656 17.476-6.656 24.166 0l477.867 477.867c15.087 14.541-8.465 39.834-24.166 24.166l-465.783-465.818-465.783 465.818c-3.209 3.277-7.509 4.983-12.083 4.983z" />
<glyph unicode="&#xe926;" glyph-name="mbri-download" d="M529.067-29.867c4.437 0.068 8.875 1.877 12.049 4.983l136.329 136.329c15.838 15.223-8.875 39.936-24.098 24.098l-124.245-124.245-124.245 124.245c-15.497 16.145-40.107-8.738-24.132-24.098l136.329-136.329c3.277-3.243 7.441-5.052 12.049-4.983zM529.067 72.533c-9.455 0-17.067 7.612-17.067 17.067v238.933c0 9.455 7.612 17.067 17.067 17.067s17.067-7.612 17.067-17.067v-238.933c0-9.455-7.612-17.067-17.067-17.067zM768 174.933h85.333c94.071 0 170.667 76.595 170.667 170.667 0 81.852-59.187 149.265-137.899 165.069 0.546 7.509 1.365 16.862 1.365 22.665 0 178.176-145.408 324.267-324.267 324.267-119.808-0.171-228.215-67.345-284.331-172.373-7.578 0.683-15.155 1.707-22.869 1.707-141.585 0-256-114.825-256-256s114.825-256 256-256h34.133c22.63 0 22.801 34.133 0 34.133h-34.133c-122.743 0-221.867 99.123-221.867 221.867 0 122.675 99.055 221.798 221.73 221.867 9.728-0.068 19.456-0.785 29.082-2.15 7.305-1.024 14.473 2.731 17.749 9.421 48.435 99.84 149.47 163.226 260.506 163.396 160.427 0 290.133-129.707 290.133-290.133-0.068-10.991-0.751-21.948-2.048-32.87-1.195-9.557 5.7-18.091 15.258-19.046 70.076-6.793 123.324-65.434 123.324-135.817 0-75.605-60.928-136.533-136.533-136.533h-85.333c-23.381 0-21.777-34.133 0-34.133z" />
<glyph unicode="&#xe927;" glyph-name="mbri-drag-n-drop" d="M165.308 341.299l-124.245 124.382 124.245 123.29c15.838 15.36-7.987 40.96-24.235 24.235l-136.294-135.407c-6.383-6.349-6.383-17.92 0-24.235l136.294-136.533c16.657-16.725 40.277 8.124 24.235 24.235zM824.559 588.834l124.245-124.382-124.245-123.221c-15.838-15.462 7.987-41.028 24.235-24.303l136.329 135.407c6.383 6.349 6.383 17.92 0 24.235l-136.294 136.533c-16.657 16.725-40.277-8.124-24.235-24.235zM618.735 135.441l-124.416-124.245-123.221 124.245c-15.462 15.838-41.028-8.021-24.303-24.235l135.407-136.329c6.349-6.383 17.92-6.383 24.235 0l136.533 136.294c16.725 16.657-8.124 40.277-24.235 24.235zM371.132 794.692l124.382 124.245 123.29-124.245c15.36-15.838 40.96 8.021 24.235 24.235l-135.373 136.294c-6.349 6.383-17.92 6.383-24.235 0l-136.533-136.294c-16.725-16.657 8.124-40.277 24.235-24.235zM477.867 840.533v-358.4h-358.4c-22.187 0-22.357-34.133 0-34.133h358.4v-358.4c0-22.869 34.133-22.699 34.133 0v358.4h358.4c22.767 0 22.699 34.133 0 34.133h-358.4v358.4c0 23.279-34.133 21.777-34.133 0z" />
<glyph unicode="&#xe928;" glyph-name="mbri-drag-n-drop2" d="M477.867 533.777c0.137 4.437 1.98 8.602 5.12 11.708l34.133 34.065c6.69 6.656 17.476 6.656 24.132 0l34.133-34.065c15.36-15.36-9.216-38.912-24.132-24.098l-22.050 22.016-22.084-22.016c-10.854-11.059-29.252-2.935-29.252 12.39zM477.867 259.823c0.137-4.437 1.98-8.602 5.12-11.708l34.133-34.065c6.69-6.656 17.476-6.656 24.132 0l34.133 34.065c15.36 15.36-9.216 38.912-24.132 24.098l-22.050-22.016-22.084 22.016c-10.854 11.059-29.252 2.935-29.252-12.39zM666.044 448c4.437-0.137 8.602-1.98 11.708-5.12l34.065-34.133c6.656-6.69 6.656-17.476 0-24.132l-34.065-34.133c-15.36-15.36-38.912 9.216-24.098 24.132l22.016 22.050-22.016 22.084c-11.059 10.854-2.935 29.252 12.39 29.252zM392.090 448c-4.437-0.137-8.602-1.98-11.708-5.12l-34.065-34.133c-6.656-6.69-6.656-17.476 0-24.132l34.065-34.133c15.36-15.36 38.912 9.216 24.098 24.132l-22.016 22.050 22.016 22.084c11.059 10.854 2.935 29.252-12.39 29.252zM529.067 516.267c-9.455 0-17.067-7.612-17.067-17.067v-85.333h-85.333c-9.455 0-17.067-7.612-17.067-17.067s7.612-17.067 17.067-17.067h85.333v-85.333c0-9.455 7.612-17.067 17.067-17.067s17.067 7.612 17.067 17.067v85.333h85.333c9.455 0 17.067 7.612 17.067 17.067s-7.612 17.067-17.067 17.067h-85.333v85.333c0 9.455-7.612 17.067-17.067 17.067zM85.333 686.933h853.333c9.455 0 17.067-7.612 17.067-17.067s-7.612-17.067-17.067-17.067h-853.333c-9.455 0-17.067 7.612-17.067 17.067s7.612 17.067 17.067 17.067zM238.933 738.133c0-9.426-7.641-17.067-17.067-17.067s-17.067 7.641-17.067 17.067c0 9.426 7.641 17.067 17.067 17.067s17.067-7.641 17.067-17.067zM170.667 738.133c0-9.426-7.641-17.067-17.067-17.067s-17.067 7.641-17.067 17.067c0 9.426 7.641 17.067 17.067 17.067s17.067-7.641 17.067-17.067zM102.4 738.133c0-9.426-7.641-17.067-17.067-17.067s-17.067 7.641-17.067 17.067c0 9.426 7.641 17.067 17.067 17.067s17.067-7.641 17.067-17.067zM51.2 823.467c-28.058 0-51.2-23.142-51.2-51.2v-648.533c0-28.058 23.142-51.2 51.2-51.2h921.6c28.058 0 51.2 23.142 51.2 51.2v648.533c0 28.058-23.142 51.2-51.2 51.2h-921.6zM51.2 789.333h921.6c9.762 0 17.067-7.305 17.067-17.067v-648.533c0-9.762-7.305-17.067-17.067-17.067h-921.6c-9.762 0-17.067 7.305-17.067 17.067v648.533c0 9.762 7.305 17.067 17.067 17.067z" />
<glyph unicode="&#xe929;" glyph-name="mbri-edit" d="M955.392 740.284c-19.797 19.797-52.565 19.797-72.363 0l-14.78-14.746c-19.797-19.797-19.797-52.565 0-72.363l53.692-53.726c19.866-19.797 52.565-19.797 72.431 0l14.746 14.78c19.797 19.797 19.797 52.497 0 72.363l-53.726 53.692zM931.294 716.151l53.692-53.692c6.895-6.895 6.895-17.237 0-24.132l-14.78-14.78c-6.827-6.895-17.237-6.895-24.132 0l-53.692 53.692c-6.895 6.895-6.895 17.237 0 24.132l14.78 14.78c6.895 6.895 17.237 6.895 24.132 0zM814.899 652.663c-10.24 0.819-22.733-2.048-32.017-11.401l-351.232-351.846c-6.383-6.485-13.141-13.175-17.169-23.62-3.994-10.445-4.847-21.845-4.847-39.663v-51.2c0-17.237 14.677-34.133 34.133-34.133h51.2c17.886 0 29.525 1.024 39.936 5.052 10.445 4.096 17.169 10.82 23.347 16.998l351.232 351.915c16.896 16.93 15.36 42.871 0 58.231l-68.267 68.267c-7.236 7.168-16.043 10.581-26.283 11.401zM817.015 617.165l68.267-68.267c1.297-1.297 2.594-7.441 0-10.035l-351.232-351.846c-6.144-6.144-7.953-7.953-11.503-9.353-3.584-1.365-11.332-2.731-27.648-2.731h-51.166v51.2c0 16.384 1.297 24.064 2.628 27.477 1.297 3.413 3.072 5.222 9.455 11.605l351.232 351.915c3.072 3.072 8.431 1.536 9.967 0zM153.6 584.533h443.733c9.455 0 17.067-7.612 17.067-17.067s-7.612-17.067-17.067-17.067h-443.733c-9.455 0-17.067 7.612-17.067 17.067s7.612 17.067 17.067 17.067zM153.6 686.933h443.733c9.455 0 17.067-7.612 17.067-17.067s-7.612-17.067-17.067-17.067h-443.733c-9.455 0-17.067 7.612-17.067 17.067s7.612 17.067 17.067 17.067zM153.6 789.333h443.733c9.455 0 17.067-7.612 17.067-17.067s-7.612-17.067-17.067-17.067h-443.733c-9.455 0-17.067 7.612-17.067 17.067s7.612 17.067 17.067 17.067zM51.2 960c-28.058 0-51.2-23.142-51.2-51.2v-921.6c0-28.058 23.142-51.2 51.2-51.2h648.533c28.058 0 51.2 23.142 51.2 51.2v273.067c0 22.801-34.133 22.118-34.133 0v-273.067c0-9.762-7.305-17.067-17.067-17.067h-648.533c-9.762 0-17.067 7.305-17.067 17.067v921.6c0 9.762 7.305 17.067 17.067 17.067h648.533c9.762 0 17.067-7.305 17.067-17.067v-238.933c0-22.938 34.133-22.118 34.133 0v238.933c0 28.058-23.142 51.2-51.2 51.2z" />
<glyph unicode="&#xe92a;" glyph-name="mbri-edit2" d="M886.272 945.118c-19.866 19.797-52.565 19.797-72.363 0l-82.261-82.261c-19.797-19.797-19.797-52.497 0-72.363l122.88-122.88c19.797-19.797 52.565-19.797 72.363 0l82.261 82.261c19.797 19.797 19.797 52.565 0 72.363zM862.14 920.986l122.88-122.88c6.827-6.827 6.827-17.203 0-24.098l-82.261-82.193c-6.895-6.895-17.237-6.895-24.132 0l-122.812 122.88c-6.895 6.827-6.895 17.203 0 24.098l82.261 82.261c6.827 6.827 17.203 6.827 24.098 0zM674.543 788.89c-17.169-2.389-29.559-12.732-39.151-22.323l-596.309-596.753c-16.862-16.896-26.897-29.935-32.7-43.145-5.803-13.175-6.383-25.6-6.383-37.069v-102.4c0-19.9 6.042-35.84 18.227-44.032 12.22-8.192 24.439-7.168 32.973-7.168h102.4c21.845 0 37.717 4.335 50.176 12.151 12.493 7.851 20.275 17.476 29.764 26.965l596.309 596.821c17.818 17.852 25.702 36.966 22.869 54.272-2.731 17.271-13.653 28.877-22.869 38.093l-102.195 102.298c-17.067 17.067-35.977 24.678-53.111 22.323zM679.185 755.098c5.291 0.751 11.947-0.205 24.371-12.629l102.229-102.332c7.851-7.851 12.527-14.746 13.312-19.456 0.751-4.779 0.102-11.264-13.312-24.678l-596.309-596.753c-10.65-10.581-17.135-17.988-23.791-22.187-6.656-4.164-14.268-6.929-32.085-6.929h-102.4c-15.599 0-17.067 5.564-17.067 17.067v102.4c0 10.513 0.273 16.043 3.482 23.347 3.209 7.339 10.24 17.408 25.532 32.7l596.309 596.821c7.509 7.441 14.438 11.947 19.729 12.629z" />
<glyph unicode="&#xe92b;" glyph-name="mbri-error" d="M393.011 516.267c-15.36 0-23.484-18.432-12.39-29.252l107.281-107.179-107.383-107.383c-15.531-14.882 8.704-40.175 24.132-24.132l107.349 107.349 107.383-107.349c15.428-16.043 39.663 9.216 24.132 24.132l-107.383 107.349 107.247 107.179c11.059 10.854 2.97 29.286-12.425 29.286-4.437-0.137-8.636-1.98-11.742-5.12l-107.213-107.179-107.247 107.179c-3.072 3.14-7.305 4.983-11.742 5.12zM85.333 686.933h853.333c9.455 0 17.067-7.612 17.067-17.067s-7.612-17.067-17.067-17.067h-853.333c-9.455 0-17.067 7.612-17.067 17.067s7.612 17.067 17.067 17.067zM238.933 738.133c0-9.426-7.641-17.067-17.067-17.067s-17.067 7.641-17.067 17.067c0 9.426 7.641 17.067 17.067 17.067s17.067-7.641 17.067-17.067zM170.667 738.133c0-9.426-7.641-17.067-17.067-17.067s-17.067 7.641-17.067 17.067c0 9.426 7.641 17.067 17.067 17.067s17.067-7.641 17.067-17.067zM102.4 738.133c0-9.426-7.641-17.067-17.067-17.067s-17.067 7.641-17.067 17.067c0 9.426 7.641 17.067 17.067 17.067s17.067-7.641 17.067-17.067zM51.2 823.467c-28.058 0-51.2-23.142-51.2-51.2v-648.533c0-28.058 23.142-51.2 51.2-51.2h921.6c28.058 0 51.2 23.142 51.2 51.2v648.533c0 28.058-23.142 51.2-51.2 51.2h-921.6zM51.2 789.333h921.6c9.762 0 17.067-7.305 17.067-17.067v-648.533c0-9.762-7.305-17.067-17.067-17.067h-921.6c-9.762 0-17.067 7.305-17.067 17.067v648.533c0 9.762 7.305 17.067 17.067 17.067z" />
<glyph unicode="&#xe92c;" glyph-name="mbri-extension" d="M804.181 945.118c-19.797 19.797-52.565 19.797-72.363 0l-204.937-204.937c-19.797-19.797-19.797-52.565 0-72.363l204.937-204.971c19.797-19.797 52.565-19.797 72.363 0l204.971 204.937c19.797 19.797 19.797 52.565 0 72.363l-204.971 204.971zM780.083 920.951l204.902-204.902c6.895-6.895 6.895-17.237 0-24.132l-204.902-204.937c-6.895-6.895-17.237-6.895-24.132 0l-204.937 204.937c-6.895 6.895-6.895 17.237 0 24.132l204.937 204.902c6.895 6.895 17.237 6.895 24.132 0zM563.2 345.6c-28.058 0-51.2-23.142-51.2-51.2v-307.2c0-28.058 23.142-51.2 51.2-51.2h307.2c28.058 0 51.2 23.142 51.2 51.2v307.2c0 28.058-23.142 51.2-51.2 51.2h-307.2zM563.2 311.467h307.2c9.762 0 17.067-7.305 17.067-17.067v-307.2c0-9.762-7.305-17.067-17.067-17.067h-307.2c-9.762 0-17.067 7.305-17.067 17.067v307.2c0 9.762 7.305 17.067 17.067 17.067zM51.2 857.6c-28.058 0-51.2-23.142-51.2-51.2v-307.2c0-28.058 23.142-51.2 51.2-51.2h307.2c28.058 0 51.2 23.142 51.2 51.2v307.2c0 28.058-23.142 51.2-51.2 51.2h-307.2zM51.2 823.467h307.2c9.762 0 17.067-7.305 17.067-17.067v-307.2c0-9.762-7.305-17.067-17.067-17.067h-307.2c-9.762 0-17.067 7.305-17.067 17.067v307.2c0 9.762 7.305 17.067 17.067 17.067zM51.2 345.6c-28.058 0-51.2-23.142-51.2-51.2v-307.2c0-28.058 23.142-51.2 51.2-51.2h307.2c28.058 0 51.2 23.142 51.2 51.2v307.2c0 28.058-23.142 51.2-51.2 51.2h-307.2zM51.2 311.467h307.2c9.762 0 17.067-7.305 17.067-17.067v-307.2c0-9.762-7.305-17.067-17.067-17.067h-307.2c-9.762 0-17.067 7.305-17.067 17.067v307.2c0 9.762 7.305 17.067 17.067 17.067z" />
<glyph unicode="&#xe92d;" glyph-name="mbri-features" d="M751.104 960c-6.622 0.068-12.698-3.584-15.633-9.421l-74.991-149.504-167.936-23.893c-14.097-2.048-19.729-19.115-9.489-28.877l129.877-116.292-32.529-164.181c-2.389-13.858 12.39-24.405 25.020-17.852l145.51 77.551 146.295-77.585c12.629-6.485 27.307 4.028 24.986 17.818l-32.154 164.181 128.683 116.326c10.24 9.762 4.642 26.863-9.489 28.877l-167.799 23.893-75.093 149.504c-2.867 5.7-8.772 9.387-15.258 9.455zM750.933 904.875l63.59-126.635c2.492-5.052 7.373-8.533 12.971-9.318l142.268-20.309-110.148-98.645c-4.096-3.823-5.905-9.421-4.949-14.882l27.75-139.264-123.426 65.775c-5.018 2.594-10.991 2.594-16.043 0l-122.539-65.741 28.092 139.264c0.956 5.461-0.922 11.093-4.949 14.95l-111.343 98.645 142.199 20.275c5.632 0.785 10.479 4.267 12.971 9.284zM563.2 345.6c-28.058 0-51.2-23.142-51.2-51.2v-307.2c0-28.058 23.142-51.2 51.2-51.2h307.2c28.058 0 51.2 23.142 51.2 51.2v307.2c0 28.058-23.142 51.2-51.2 51.2zM563.2 311.467h307.2c9.762 0 17.067-7.305 17.067-17.067v-307.2c0-9.762-7.305-17.067-17.067-17.067h-307.2c-9.762 0-17.067 7.305-17.067 17.067v307.2c0 9.762 7.305 17.067 17.067 17.067zM51.2 857.6c-28.058 0-51.2-23.142-51.2-51.2v-307.2c0-28.058 23.142-51.2 51.2-51.2h307.2c28.058 0 51.2 23.142 51.2 51.2v307.2c0 28.058-23.142 51.2-51.2 51.2zM51.2 823.467h307.2c9.762 0 17.067-7.305 17.067-17.067v-307.2c0-9.762-7.305-17.067-17.067-17.067h-307.2c-9.762 0-17.067 7.305-17.067 17.067v307.2c0 9.762 7.305 17.067 17.067 17.067zM51.2 345.6c-28.058 0-51.2-23.142-51.2-51.2v-307.2c0-28.058 23.142-51.2 51.2-51.2h307.2c28.058 0 51.2 23.142 51.2 51.2v307.2c0 28.058-23.142 51.2-51.2 51.2zM51.2 311.467h307.2c9.762 0 17.067-7.305 17.067-17.067v-307.2c0-9.762-7.305-17.067-17.067-17.067h-307.2c-9.762 0-17.067 7.305-17.067 17.067v307.2c0 9.762 7.305 17.067 17.067 17.067z" />
<glyph unicode="&#xe92e;" glyph-name="mbri-file" d="M290.133 311.467h443.733c9.455 0 17.067-7.612 17.067-17.067s-7.612-17.067-17.067-17.067h-443.733c-9.455 0-17.067 7.612-17.067 17.067s7.612 17.067 17.067 17.067zM290.133 448h443.733c9.455 0 17.067-7.612 17.067-17.067s-7.612-17.067-17.067-17.067h-443.733c-9.455 0-17.067 7.612-17.067 17.067s7.612 17.067 17.067 17.067zM290.133 584.533h443.733c9.455 0 17.067-7.612 17.067-17.067s-7.612-17.067-17.067-17.067h-443.733c-9.455 0-17.067 7.612-17.067 17.067s7.612 17.067 17.067 17.067zM631.467 891.733c-9.421-0.137-17.203-7.646-17.067-17.067v-136.533c0-28.058 23.142-51.2 51.2-51.2h136.533c22.699 0 22.528 34.133 0 34.133h-136.533c-9.762 0-17.067 7.305-17.067 17.067v136.533c0.137 9.626-7.441 17.203-17.067 17.067zM153.6 960c-28.058 0-51.2-23.142-51.2-51.2v-921.6c0-28.058 23.142-51.2 51.2-51.2h716.8c28.058 0 51.2 23.142 51.2 51.2v716.8c0 4.54-1.809 8.875-4.983 12.083l-238.933 238.933c-3.209 3.174-7.509 4.983-12.083 4.983zM153.6 925.867h504.934l228.932-228.932v-709.734c0-9.762-7.305-17.067-17.067-17.067h-716.8c-9.762 0-17.067 7.305-17.067 17.067v921.6c0 9.762 7.305 17.067 17.067 17.067z" />
<glyph unicode="&#xe92f;" glyph-name="mbri-flag" d="M221.867 925.867c-21.743 0-23.279-34.133 0-34.133h672.836c38.4-0.068 27.102-12.629 20.821-23.552l-0.341-0.444-126.771-170.667c-4.437-6.042-4.437-14.234 0-20.275l126.123-170.667c12.527-18.227 5.803-23.996-20.412-23.996h-672.256c-22.323 0-22.187-34.133 0-34.133h672.256c22.528 0 42.564 4.437 54.477 20.548 6.007 8.021 8.363 18.876 6.758 28.911-1.57 10.001-6.315 19.456-13.312 28.911l-118.75 160.563 118.921 160.085c12.561 15.872 18.364 36.693 8.602 53.931-9.762 17.34-30.515 24.917-56.115 24.917zM119.467 960c-28.058 0-51.2-23.142-51.2-51.2v-921.6c0-28.058 23.142-51.2 51.2-51.2s51.2 23.142 51.2 51.2v921.6c0 28.058-23.142 51.2-51.2 51.2zM119.467 925.867c9.762 0 17.067-7.305 17.067-17.067v-921.6c0-9.762-7.305-17.067-17.067-17.067s-17.067 7.305-17.067 17.067v921.6c0 9.762 7.305 17.067 17.067 17.067z" />
<glyph unicode="&#xe930;" glyph-name="mbri-folder" d="M51.2 891.733c-28.058 0-51.2-23.142-51.2-51.2v-785.067c0-28.058 23.142-51.2 51.2-51.2h921.6c28.058 0 51.2 23.142 51.2 51.2v614.4c0 28.058-23.142 51.2-51.2 51.2h-443.733c-12.732 0-17.749 0.068-23.893 2.799-6.212 2.731-15.701 9.728-32.29 26.351l-102.4 102.4c-17.067 17.067-26.010 26.761-38.571 33.041-12.663 6.315-24.713 6.076-41.779 6.076h-238.933zM51.2 857.6h238.933c17.067 0 22.084-0.239 26.522-2.458 4.437-2.253 12.629-9.626 29.696-26.692l102.4-102.4c17.613-17.613 29.525-27.648 42.598-33.451 13.039-5.803 25.020-5.666 37.717-5.666h443.733c9.762 0 17.067-7.305 17.067-17.067v-614.4c0-9.762-7.305-17.067-17.067-17.067h-921.6c-9.762 0-17.067 7.305-17.067 17.067v785.067c0 9.762 7.305 17.067 17.067 17.067z" />
<glyph unicode="&#xe931;" glyph-name="mbri-gift" d="M290.133 960c-33.997 0-66.833-18.773-88.542-44.612-21.709-25.702-30.925-56.661-30.925-91.921 0-22.289 7.953-44.851 19.456-64 9.011-15.019 20.89-27.887 34.611-38.4h-156.467c-37.547 0-68.267-30.72-68.267-68.267v-136.533c0-37.547 30.72-68.267 68.267-68.267h887.467c37.547 0 68.267 30.72 68.267 68.267v136.533c0 37.547-30.72 68.267-68.267 68.267h-199.407c9.455 9.762 16.964 21.367 21.845 34.133 6.622 17.237 8.329 35.84 5.803 53.726-2.97 20.48-11.605 40.448-26.385 55.979-14.916 15.735-35.226 26.829-57.856 26.829-21.948 0-42.155-7.509-58.47-18.773-16.145-11.196-28.74-25.020-40.277-38.093-26.965-30.72-51.883-63.147-75.503-96.529-20.617 38.639-42.94 76.39-68.164 112.196-18.842 26.761-39.799 53.931-67.584 75.264-27.989 21.504-62.191 34.202-99.601 34.202zM290.133 926.003c26.624 0 55.808-9.557 78.848-27.307 23.142-17.818 42.325-42.052 60.553-67.925 24.508-34.748 45.397-72.124 65.399-109.705h-136.533c-19.354 0-38.127 0.341-55.535 3.277-17.408 2.901-34.065 8.636-48.401 17.408-14.336 8.875-26.624 21.094-35.157 35.328-8.636 14.302-14.507 29.764-14.507 46.387 0 24.474 7.066 51.302 22.801 69.973 15.701 18.671 38.468 32.563 62.532 32.563zM699.733 857.6c12.971 0 23.996-6.485 33.109-16.145 9.284-9.694 15.36-23.211 17.408-37.308 1.809-12.425 0.512-25.327-3.857-36.693-4.335-11.332-12.049-21.641-21.675-29.082-9.557-7.509-21.606-12.527-34.372-15.019-12.834-2.458-26.624-2.594-41.813-2.321h-91.273c21.845 30.618 44.373 63.010 69.291 91.273 11.127 12.629 22.016 24.235 34.065 32.597 11.878 8.192 26.795 12.629 39.117 12.629zM68.267 686.933h887.467c19.217 0 34.133-14.916 34.133-34.133v-136.533c0-19.217-14.916-34.133-34.133-34.133h-887.467c-19.217 0-34.133 14.916-34.133 34.133v136.533c0 19.217 14.916 34.133 34.133 34.133zM460.8 652.8c-9.455 0-17.067-7.612-17.067-17.067v-68.267c0-9.455 7.612-17.067 17.067-17.067s17.067 7.612 17.067 17.067v68.267c0 9.455-7.612 17.067-17.067 17.067zM563.2 652.8c-9.455 0-17.067-7.612-17.067-17.067v-68.267c0-9.455 7.612-17.067 17.067-17.067s17.067 7.612 17.067 17.067v68.267c0 9.455-7.612 17.067-17.067 17.067zM119.194 414.14c-9.421-0.137-16.93-7.919-16.794-17.34v-392.533c0-37.547 30.72-68.267 68.267-68.267h682.667c37.547 0 68.267 30.72 68.267 68.267v392.533c0.341 23.074-34.475 23.074-34.133 0v-392.533c0-19.217-14.916-34.133-34.133-34.133h-273.067v426.667c0 9.455-7.612 17.067-17.067 17.067s-17.067-7.612-17.067-17.067v-426.667h-68.267v426.667c0 9.455-7.612 17.067-17.067 17.067s-17.067-7.612-17.067-17.067v-426.667h-273.067c-19.217 0-34.133 14.916-34.133 34.133v392.533c0.137 9.626-7.714 17.476-17.34 17.34z" />
<glyph unicode="&#xe932;" glyph-name="mbri-github" d="M0 448c0-240.060 165.069-441.856 388.267-497.084 10.24-2.628 21.675 6.485 21.333 17.067v224.017c0 11.366 6.724 22.255 19.217 28.809 12.629 6.315 9.557 29.218-4.267 31.983-64.853 12.971-120.149 39.014-158.959 73.626-38.741 34.645-60.791 76.732-60.791 121.583 0 31.232 11.162 61.201 30.925 88.542 2.048 2.799 3.14 6.144 3.209 9.557v163.26l135.509-72.533c4.164-2.253 9.318-2.628 13.824-1.024 37.99 11.264 79.292 16.998 123.733 16.998s85.743-5.734 123.733-17.067c4.506-1.604 9.66-1.195 13.858 1.024l135.475 72.602v-163.157c0.068-3.413 1.195-6.827 3.209-9.626 19.797-27.307 30.925-57.344 30.925-88.542 0-44.885-22.016-86.972-60.757-121.617-38.844-34.611-94.208-60.621-158.959-73.591-13.858-2.731-16.896-25.6-4.267-31.949 12.459-6.554 19.183-17.408 19.183-28.809v-224.017c-0.341-10.581 11.127-19.695 21.333-17.067 223.232 55.159 388.267 256.99 388.267 497.015 0 282.556-229.444 512-512 512s-512-229.444-512-512zM512 925.867c264.124 0 477.867-213.743 477.867-477.867 0-216.064-144.725-394.138-341.333-453.291v197.291c0 13.653-5.257 25.805-12.8 36.284 56.764 15.599 108.612 40.107 146.091 73.591 44.407 39.492 71.509 90.146 71.509 146.125 0 36.966-13.449 70.793-34.133 101.376v188.757c0.102 11.947-15.223 20.924-25.6 14.916l-156.809-84.207c-38.912 10.581-80.555 18.091-124.791 18.091-44.203 0-85.914-7.441-124.791-18.091l-156.809 84.173c-10.377 6.007-25.702-2.97-25.6-14.916v-188.757c-20.685-30.583-34.133-64.41-34.133-101.376 0-55.979 27.136-106.598 71.475-146.091 37.547-33.519 89.429-58.027 146.091-73.66-7.509-10.445-12.766-22.528-12.766-36.25v-57.617c-37.205-13.858-61.679-16.828-76.8-13.858-16.316 3.209-25.122 11.605-35.157 25.6-20.207 28.092-40.038 79.872-105.643 96.802-22.323 5.973-29.867-27.307-8.533-33.109 51.473-13.312 61.611-49.425 86.357-83.968 12.425-17.237 30.242-33.212 56.593-38.4 21.948-4.301 48.538-1.024 83.183 10.684v-103.424c-196.54 59.153-341.333 237.261-341.333 453.325 0 264.124 213.743 477.867 477.867 477.867z" />
<glyph unicode="&#xe933;" glyph-name="mbri-globe-2" d="M494.933 960c-273.135 0-494.933-221.798-494.933-494.933s221.798-494.933 494.933-494.933c273.135 0 494.933 221.798 494.933 494.933s-221.798 494.933-494.933 494.933zM494.933 925.867c75.503 0 145.237-46.558 198.212-125.542-125.269-59.733-271.121-59.733-396.425 0.068 52.907 78.95 122.778 125.474 198.212 125.474zM336.725 897.468c-26.112-22.187-49.732-49.698-70.485-81.169-12.902 7.441-25.498 15.599-37.888 24.371 33.178 23.552 69.564 42.598 108.373 56.798zM653.141 897.468c38.844-14.199 75.23-33.314 108.407-56.866-12.288-8.772-24.986-16.862-37.888-24.235-20.753 31.403-44.373 58.914-70.485 81.101zM199.851 819.029c15.804-11.674 32.085-22.289 48.811-31.881-48.811-86.972-77.995-199.202-77.995-322.082s29.218-235.076 77.995-322.014c-16.725-9.557-33.109-20.139-48.811-31.915-101.342 84.514-165.717 211.593-165.717 353.929s64.444 269.517 165.717 353.963zM790.016 819.029c101.274-84.412 165.717-211.627 165.717-353.963s-64.444-269.517-165.717-353.963c-15.804 11.674-32.085 22.289-48.811 31.881 48.811 86.972 77.995 199.202 77.995 322.082s-29.218 235.076-77.995 322.014c16.725 9.557 33.007 20.241 48.811 31.983zM278.938 771.174c136.26-66.219 295.799-66.219 432.060 0 45.636-81.169 74.069-188.245 74.069-306.108s-28.467-224.939-74.138-306.074c-67.925 33.007-141.653 49.937-215.518 50.005-74.206 0.068-148.275-16.862-216.542-50.005-45.636 81.135-74.069 188.211-74.069 306.074s28.467 224.939 74.138 306.074zM85.333 482.133c-9.455 0-17.067-7.612-17.067-17.067s7.612-17.067 17.067-17.067h34.133c9.455 0 17.067 7.612 17.067 17.067s-7.612 17.067-17.067 17.067h-34.133zM256 482.133c-9.455 0-17.067-7.612-17.067-17.067s7.612-17.067 17.067-17.067h477.867c9.455 0 17.067 7.612 17.067 17.067s-7.612 17.067-17.067 17.067h-477.867zM870.4 482.133c-9.455 0-17.067-7.612-17.067-17.067s7.612-17.067 17.067-17.067h34.133c9.455 0 17.067 7.612 17.067 17.067s-7.612 17.067-17.067 17.067h-34.133zM495.343 174.933c67.686-0.068 135.305-15.36 197.803-45.193-52.907-78.95-122.778-125.474-198.212-125.474s-145.271 46.524-198.212 125.474c62.805 29.969 130.628 45.261 198.656 45.193zM266.308 113.835c20.685-31.471 44.305-58.982 70.417-81.169-38.844 14.199-75.196 33.314-108.339 56.866 12.356 8.738 24.986 16.862 37.888 24.235zM723.593 113.835c12.902-7.441 25.532-15.565 37.888-24.303-33.178-23.552-69.53-42.667-108.373-56.866 26.112 22.187 49.732 49.698 70.451 81.135z" />
<glyph unicode="&#xe934;" glyph-name="mbri-globe" d="M665.6 857.6c-18.022-0.341-23.415-25.19-8.465-32.324 8.806-4.437 16.452-11.947 20.821-20.821 4.437-8.806 5.939-19.456 4.164-29.116-1.707-9.421-6.588-19.217-13.244-28.672-6.724-9.489-14.507-18.91-23.211-29.457-8.738-10.581-17.749-22.528-23.893-37.001-6.212-14.677-9.353-31.881-4.983-49.22 3.516-13.858 11.332-25.498 20.753-34.611 9.318-9.079 20.002-15.565 30.583-20.617 21.163-10.069 41.711-15.087 57.924-23.45 15.974-8.192 30.857-20.89 47.172-34.065 16.384-13.21 34.748-27.204 57.481-35.157 14.507-5.052 24.303-6.827 34.611-10.445 5.12-1.775 9.626-3.959 13.107-6.485 3.413-2.526 6.042-5.564 7.407-8.431 1.946-3.959 2.389-9.694 0.785-14.78-1.638-5.257-5.291-10.581-10.24-14.677-10.001-8.431-22.084-12.561-38.912-13.858-16.998-1.365-36.284-0.205-57.071-3.482-10.377-1.638-21.094-4.506-31.403-9.557-10.411-5.12-20.241-12.561-27.648-22.63-10.411-14.063-13.79-29.013-17.579-40.721-1.877-5.803-3.755-10.923-6.076-15.121-2.253-4.164-4.983-7.509-7.714-9.557-3.891-3.072-10.684-5.393-19.456-7.851-8.977-2.492-20.378-5.325-31.061-13.449-11.332-8.533-18.091-20.48-21.572-32.529-3.516-11.878-3.345-23.552-3.345-34.202 0-33.587 13.653-66.355 33.792-93.286 20.139-26.897 48.333-47.445 80.077-58.539 21.504-7.441 32.256 24.917 11.196 32.29-25.259 8.772-47.889 25.429-63.932 46.763-16.043 21.402-26.965 47.787-26.965 74.479 0 8.533 0 16.316 1.946 22.869 1.877 6.417 5.461 11.878 9.455 14.95 3.959 3.004 10.752 5.325 19.593 7.782 8.943 2.56 20.412 5.461 31.13 13.653 7.612 5.803 12.902 13.073 16.862 20.309s6.485 14.336 8.602 20.958c4.233 13.073 7.441 23.996 12.561 30.891 3.584 4.881 8.943 9.148 15.258 12.288 6.383 3.072 13.79 5.188 21.777 6.485 15.974 2.492 34.304 1.502 54.374 3.072 20.343 1.604 43.213 6.315 61.645 21.845 9.318 7.851 13.653 18.159 17.476 30.72 3.891 12.698 3.618 26.863-2.526 39.663-4.335 8.977-7.578 15.974-14.746 21.163-7.168 5.222-14.677 8.636-22.016 11.162-14.507 5.052-27.648 6.929-37.99 10.581-16.145 5.598-31.505 16.725-47.206 29.355-15.701 12.698-32.256 27.307-52.907 37.888-21.163 10.923-42.052 15.906-58.846 23.893-8.363 4.028-15.804 8.704-21.504 14.268-5.7 5.53-9.796 12.151-11.435 18.603-2.048 8.090-0.683 18.091 3.311 27.477 4.096 9.557 10.854 19.046 18.773 28.672 7.953 9.626 17.169 19.593 25.6 31.471 8.397 11.947 15.189 25.873 18.159 42.189 3.072 17.135 0.478 34.953-7.305 50.517-7.782 15.599-19.627 28.331-35.157 36.079-2.867 1.331-5.154 1.775-7.987 1.775zM119.467 584.533c-22.187 0-22.869-34.133 0-34.133h34.133c8.397 0 15.155-0.546 19.729-2.389s8.977-5.564 11.947-10.24c3.072-4.779 5.461-11.878 8.26-20.48 2.867-8.875 6.485-20.378 16.247-30.174 9.796-9.762 21.333-13.38 30.14-16.247 8.602-2.799 15.701-5.188 20.48-8.26 4.676-2.97 8.397-7.373 10.24-11.947s2.389-11.332 2.389-19.729v-58.027c0-8.533 0.102-19.319 5.12-30.652 5.12-11.401 14.131-20.309 25.259-25.395 10.923-4.949 28.74-5.325 37.751-5.393 8.875-0.068 8.465-0.171 12.8-1.365 3.482-0.887 7.066-2.867 9.967-5.632 2.935-2.731 5.461-6.485 7.27-10.752 3.55-8.329 4.267-20.412 4.267-33.451v-153.6c0-10.65 0-22.118 2.253-34.406s6.69-24.713 14.336-35.84c7.68-11.059 18.193-20.241 30.72-26.010 12.629-5.803 24.166-6.007 38.025-6.007 22.972 0 22.767 33.86 0 33.86-7.168 0-17.135 0.171-23.723 3.209-6.622 3.072-12.629 8.192-16.93 14.404-4.369 6.281-7.305 14.097-8.875 22.528-1.502 8.431-1.707 17.818-1.707 28.262v153.6c0 13.653-0.102 30.652-6.997 46.865-3.413 8.055-8.431 15.701-15.189 22.118-6.827 6.485-15.155 11.401-24.576 13.926-11.366 3.004-13.995 2.389-21.367 2.458-7.168 0.068-20.036 0.58-23.893 2.321-3.55 1.638-6.758 4.847-8.26 8.192-1.468 3.447-2.082 9.25-2.082 16.759v58.027c0 9.318-0.102 20.651-4.881 32.427-4.779 11.878-13.244 21.504-23.552 27.989-10.035 6.485-20.070 9.318-28.331 11.947-7.987 2.628-13.79 5.257-16.486 7.987-2.731 2.731-5.359 8.533-7.953 16.521-2.628 8.192-5.461 18.261-11.947 28.331-6.485 10.24-16.111 18.773-27.989 23.552-11.776 4.779-23.108 4.847-32.427 4.847zM512 960c-282.556 0-512-229.444-512-512s229.444-512 512-512c282.556 0 512 229.444 512 512s-229.444 512-512 512zM512 925.867c264.124 0 477.867-213.743 477.867-477.867s-213.743-477.867-477.867-477.867-477.867 213.743-477.867 477.867 213.743 477.867 477.867 477.867z" />
<glyph unicode="&#xe935;" glyph-name="mbri-growing-chart" d="M938.121 550.4c-4.606-0.155-8.727-2.111-11.703-5.184l-290.001-293.005c-1.468-1.468-7.305-4.096-13.585-4.096s-11.81 2.526-13.107 3.891l-136.533 142.575c-10.445 10.923-24.439 14.473-37.82 14.438-13.312 0-27.238-3.618-37.786-14.234l-324.198-327.031c-3.045-3.082-4.925-7.321-4.925-11.998 0-9.431 7.645-17.077 17.077-17.077 4.754 0 9.054 1.942 12.15 5.077l324.132 327.101c1.468 1.502 7.305 4.096 13.585 4.096 6.281 0.068 11.844-2.526 13.141-3.891l136.533-142.575c10.479-10.923 24.474-14.473 37.82-14.438 13.38 0 27.307 3.618 37.786 14.234l290.031 293.035c3.123 3.094 5.057 7.384 5.057 12.126 0 9.426-7.641 17.067-17.067 17.067-0.194 0-0.387-0.003-0.58-0.010zM904.533 618.667c-22.665 0-22.255-34.133 0-34.133h85.333v-85.333c0-22.938 34.133-22.255 34.133 0v102.4c0 9.421-7.646 17.067-17.067 17.067zM17.067 960c-9.421-0.137-17.203-7.646-17.067-17.067v-989.867c0-9.421 7.646-17.067 17.067-17.067h989.867c23.074-0.341 23.074 34.475 0 34.133h-972.8v972.8c0.137 9.626-7.441 17.203-17.067 17.067z" />
<glyph unicode="&#xe936;" glyph-name="mbri-hearth" d="M272.213 891.733c-76.288-3.959-148.992-41.062-198.656-98.645-49.664-57.344-73.557-132.983-73.557-208.555 0-66.15 23.791-130.253 56.183-186.368 32.427-56.115 74.752-105.028 119.467-149.982 96.393-96.7 207.531-178.586 328.431-242.005 4.949-2.594 10.923-2.594 15.838 0 120.934 63.42 232.038 145.306 328.431 242.005 44.715 44.954 87.040 93.867 119.467 149.948 32.427 56.115 56.183 120.183 56.183 186.402 0 75.776-23.893 151.142-73.523 208.555-49.698 57.617-122.402 94.72-198.656 98.645-51.746 2.662-103.936-9.762-148.89-35.499-37.444-21.367-67.413-53.18-90.931-89.225-23.552 36.045-53.487 67.857-90.931 89.259-44.919 25.737-97.143 38.195-148.821 35.465zM273.92 857.6c45.056 2.321 90.965-8.533 130.15-30.925s71.919-56.388 92.843-96.393c6.349-12.288 23.825-12.288 30.208 0 20.89 40.004 53.589 74.001 92.843 96.393 39.151 22.391 84.992 33.246 130.116 30.925 66.287-3.413 130.97-36.25 174.592-86.699 43.691-50.62 65.195-118.101 65.195-186.368 0-59.051-21.436-117.077-51.61-169.301-30.208-52.395-70.451-99.123-114.074-142.882-91.682-92.058-197.564-169.813-312.183-230.946-114.62 61.099-220.501 138.923-312.183 230.946-43.622 43.759-83.866 90.453-114.074 142.848-30.174 52.258-51.61 110.285-51.61 169.335 0 68.267 21.504 135.782 65.195 186.368 43.622 50.415 108.305 83.285 174.592 86.699z" />
<glyph unicode="&#xe937;" glyph-name="mbri-help" d="M17.067 413.867h102.4c9.455 0 17.067-7.612 17.067-17.067s-7.612-17.067-17.067-17.067h-102.4c-9.455 0-17.067 7.612-17.067 17.067s7.612 17.067 17.067 17.067zM17.067 584.533h102.4c9.455 0 17.067-7.612 17.067-17.067s-7.612-17.067-17.067-17.067h-102.4c-9.455 0-17.067 7.612-17.067 17.067s7.612 17.067 17.067 17.067zM17.067 755.2h102.4c9.455 0 17.067-7.612 17.067-17.067s-7.612-17.067-17.067-17.067h-102.4c-9.455 0-17.067 7.612-17.067 17.067s7.612 17.067 17.067 17.067zM256 891.733c-28.058 0-51.2-23.108-51.2-51.2v-580.267c0-28.058 23.142-51.2 51.2-51.2h85.333v-153.6c0-11.844 1.775-22.084 6.281-30.993 4.506-8.875 12.766-16.384 22.46-18.944 19.456-5.052 36.727 5.598 51.746 20.958 52.019 53.248 144.282 144.623 182.613 182.613h368.367c28.058 0 51.2 23.142 51.2 51.2v580.267c0 28.092-23.142 51.2-51.2 51.2zM256 857.6h716.8c9.762 0 17.067-7.305 17.067-17.067v-580.267c0-9.728-7.305-17.067-17.067-17.067h-375.467c-4.437 0-8.772-1.775-11.947-4.915-36.181-35.84-134.076-132.779-187.972-187.938-18.842-18.842-21.948-6.724-21.948 5.12v170.667c0 9.421-7.612 17.067-17.067 17.067h-102.4c-9.762 0-17.067 7.339-17.067 17.067v580.267c0 9.762 7.305 17.067 17.067 17.067z" />
<glyph unicode="&#xe938;" glyph-name="mbri-home" d="M512 891.733c-2.253-0.137-5.359-0.683-7.407-1.707l-495.036-238.729c-20.582-9.899-4.335-39.936 14.814-30.788l487.629 235.213 487.629-235.247c19.9-9.557 35.021 21.094 14.814 30.788l-495.036 238.763c-2.594 1.263-4.54 1.843-7.407 1.707zM85.333 584.533c-9.421-0.137-17.203-7.646-17.067-17.067v-512c0-28.058 23.142-51.2 51.2-51.2h238.933c9.421 0 17.067 7.646 17.067 17.067v255.898c0 75.878 60.587 136.465 136.533 136.465s136.533-60.587 136.533-136.465v-255.898c0-9.421 7.646-17.067 17.067-17.067h238.933c28.058 0 51.2 23.142 51.2 51.2v511.761c0 22.255-34.133 23.074-34.133 0v-511.761c0-9.762-7.305-17.067-17.067-17.067h-221.867v238.831c0 94.208-76.459 170.564-170.667 170.564s-170.667-76.356-170.667-170.564v-238.831h-221.867c-9.762 0-17.067 7.305-17.067 17.067v512c0.137 9.626-7.441 17.237-17.067 17.067z" />
<glyph unicode="&#xe939;" glyph-name="mbri-hot-cup" d="M392.533 960c9.455 0 17.067-7.612 17.067-17.067v-136.533c0-9.455-7.612-17.067-17.067-17.067s-17.067 7.612-17.067 17.067v136.533c0 9.455 7.612 17.067 17.067 17.067zM563.2 960c9.455 0 17.067-7.612 17.067-17.067v-136.533c0-9.455-7.612-17.067-17.067-17.067s-17.067 7.612-17.067 17.067v136.533c0 9.455 7.612 17.067 17.067 17.067zM221.867 960c9.455 0 17.067-7.612 17.067-17.067v-136.533c0-9.455-7.612-17.067-17.067-17.067s-17.067 7.612-17.067 17.067v136.533c0 9.455 7.612 17.067 17.067 17.067zM119.467 652.8h546.133c9.455 0 17.067-7.612 17.067-17.067s-7.612-17.067-17.067-17.067h-546.133c-9.455 0-17.067 7.612-17.067 17.067s7.612 17.067 17.067 17.067zM836.267 686.933c-22.528 0-22.255-34.133 0-34.133h34.133c66.219 0 119.467-53.248 119.467-119.467s-53.248-119.467-119.467-119.467h-34.133c-22.426 0-22.391-34.133 0-34.133h34.133c84.651 0 153.6 68.949 153.6 153.6s-68.949 153.6-153.6 153.6zM17.067 755.2c-9.421-0.137-17.203-7.646-17.067-17.067v-409.6c0-160.085 95.505-297.301 232.653-358.4h-215.586c-9.455 0-17.067-7.612-17.067-17.067s7.612-17.067 17.067-17.067h750.933c9.455 0 17.067 7.612 17.067 17.067s-7.612 17.067-17.067 17.067h-215.586c137.148 61.099 232.653 198.315 232.653 358.4v409.6c0 22.255-34.133 22.869-34.133 0v-409.6c0-198.861-159.539-358.4-358.4-358.4s-358.4 159.539-358.4 358.4v409.6c0.137 9.626-7.441 17.203-17.067 17.067z" />
<glyph unicode="&#xe93a;" glyph-name="mbri-idea" d="M802.133 823.467c15.223 0 22.869-18.534 11.947-29.15l-33.963-33.894c-15.258-15.906-39.799 8.772-23.962 23.962l33.894 33.929c3.209 3.243 7.509 5.12 12.083 5.12zM221.867 823.467c-15.223 0-22.869-18.534-11.947-29.15l33.963-33.894c15.258-15.906 39.936 8.636 23.962 23.962l-33.894 33.929c-3.209 3.243-7.509 5.154-12.083 5.154zM358.4-29.867h273.067c9.455 0 17.067-7.612 17.067-17.067s-7.612-17.067-17.067-17.067h-273.067c-9.455 0-17.067 7.612-17.067 17.067s7.612 17.067 17.067 17.067zM358.4 72.533h273.067c9.455 0 17.067-7.612 17.067-17.067s-7.612-17.067-17.067-17.067h-273.067c-9.455 0-17.067 7.612-17.067 17.067s7.612 17.067 17.067 17.067zM494.933 755.2c-63.078 0-119.33-36.352-158.72-92.16-39.424-55.91-63.147-131.686-63.147-215.040 0-83.388 23.723-159.164 63.147-215.040 39.39-55.808 95.642-92.16 158.72-92.16s119.33 36.352 158.72 92.16c39.424 55.91 63.147 131.686 63.147 215.040 0 83.388-23.723 159.164-63.147 215.040-39.39 55.774-95.642 92.16-158.72 92.16zM494.933 721.067c50.005 0 96.154-28.57 130.867-77.722 34.679-49.152 56.866-118.443 56.866-195.345 0-76.868-22.187-146.159-56.866-195.345-22.426-31.744-49.732-54.75-79.667-67.174-0.341 40.619-0.956 78.404 4.949 109.67 6.758 36.181 20.753 64.171 55.467 87.211 14.336 9.216 7.782 31.505-9.216 31.471-3.413 0-6.656-1.024-9.455-2.935-42.257-28.126-62.259-67.311-70.144-109.397-7.373-39.253-6.007-81.647-5.734-125.372-8.192-1.263-25.088-1.263-34.133 0 0.273 43.691 1.638 86.084-5.734 125.338-7.851 42.052-27.887 81.237-70.144 109.363-2.799 2.014-6.042 3.038-9.455 3.038-16.998 0-23.552-22.289-9.216-31.471 34.714-23.074 48.708-51.029 55.467-87.211 5.905-31.266 5.257-69.086 4.949-109.705-29.935 12.39-57.242 35.396-79.667 67.14-34.679 49.186-56.866 118.477-56.866 195.379 0 76.868 22.187 146.159 56.866 195.345 34.714 49.152 80.896 77.722 130.867 77.722zM836.267 482.133h68.267c9.455 0 17.067-7.612 17.067-17.067s-7.612-17.067-17.067-17.067h-68.267c-9.455 0-17.067 7.612-17.067 17.067s7.612 17.067 17.067 17.067zM512 942.933v-68.267c0-9.455-7.612-17.067-17.067-17.067s-17.067 7.612-17.067 17.067v68.267c0 9.455 7.612 17.067 17.067 17.067s17.067-7.612 17.067-17.067zM85.333 482.133h68.267c9.455 0 17.067-7.612 17.067-17.067s-7.612-17.067-17.067-17.067h-68.267c-9.455 0-17.067 7.612-17.067 17.067s7.612 17.067 17.067 17.067z" />
<glyph unicode="&#xe93b;" glyph-name="mbri-image-gallery" d="M358.4 789.333c-2.492 0-4.779-0.512-7.066-1.536l-323.004-146.944c-25.156-11.435-35.26-41.882-23.45-66.389l212.036-439.808c11.844-24.508 42.325-36.523 67.14-22.665l116.804 65.092c20.070 10.172 1.502 40.277-16.589 29.798l-116.873-65.058c-6.69-3.755-15.94-0.341-19.797 7.646l-14.131 29.252 64.341 32.188c20.651 10.377 2.662 39.595-15.36 30.515l-63.829-31.915-182.989 379.802c-3.857 7.953-0.785 16.998 6.827 20.48l323.038 146.944c16.555 7.578 9.796 32.597-7.066 32.597zM521.455 823.467c-6.485 0-12.868-1.195-18.842-3.55-11.947-4.676-22.118-13.892-27.648-26.453l-197.734-452.983c-10.923-25.156 0.683-54.955 25.839-65.877l453.188-197.871c25.156-10.923 54.955 0.683 65.877 25.839l197.803 453.188c10.923 25.156-0.785 54.955-25.941 65.877l-453.086 197.734c-6.281 2.731-12.902 4.096-19.456 4.096zM520.943 789.538c2.048-0.068 4.164-0.546 6.246-1.468l453.222-197.803c8.329-3.652 11.776-12.629 8.124-20.924l-164.523-377.071-482.304 210.466 164.591 377.173c2.731 6.212 8.465 9.762 14.677 9.626zM328.021 371.473l482.304-210.534-19.524-44.817c-3.652-8.329-12.629-11.844-20.924-8.192l-453.222 197.803c-8.329 3.652-11.844 12.629-8.192 20.992zM256 413.867c-7.509 0.068-13.926-4.54-16.213-11.674l-34.133-102.4c-6.622-19.9 25.020-33.007 32.427-10.786l34.133 102.4c3.823 11.025-4.54 22.391-16.213 22.46zM563.2 516.267c-2.56 0-5.325-0.683-7.612-1.809l-136.533-68.267c-20.343-9.114-3.174-40.619 15.223-30.515l123.051 61.508 59.938-89.839c4.779-7.168 14.097-9.626 21.845-5.803l123.017 61.508 59.938-89.839c12.015-18.671 40.619 1.126 28.399 18.91l-68.267 102.4c-4.779 7.168-14.097 9.626-21.845 5.803l-123.017-61.508-59.938 89.839c-3.209 4.847-8.397 7.714-14.199 7.612zM580.267 686.933c-37.547 0-68.267-30.72-68.267-68.267s30.72-68.267 68.267-68.267 68.267 30.72 68.267 68.267-30.72 68.267-68.267 68.267zM580.267 652.8c19.217 0 34.133-14.916 34.133-34.133s-14.916-34.133-34.133-34.133-34.133 14.916-34.133 34.133 14.916 34.133 34.133 34.133zM204.8 584.533c-37.547 0-68.267-30.72-68.267-68.267s30.72-68.267 68.267-68.267 68.267 30.72 68.267 68.267-30.72 68.267-68.267 68.267zM204.8 550.4c19.217 0 34.133-14.916 34.133-34.133s-14.916-34.133-34.133-34.133-34.133 14.916-34.133 34.133 14.916 34.133 34.133 34.133z" />
<glyph unicode="&#xe93c;" glyph-name="mbri-image-slider" d="M665.6 652.8c-16.794 0.137-31.266-8.26-37.274-16.043l-93.423-117.999c-5.803-7.1-18.773-2.492-24.815 1.024l-83.797 52.804c-9.899 6.485-21.163 11.947-33.724 11.947-12.971 0-26.829-3.891-36.591-14.814l-112.401-127.113c-15.189-16.998 10.24-39.799 25.463-22.801l112.435 127.113c7.441 7.987 18.261 1.707 26.112-2.867l84.378-53.18c10.445-6.485 22.187-8.602 33.724-8.738 11.605-0.137 24.235 0.922 33.621 12.288l94.447 119.467c7.407 8.977 18.227 4.779 25.395-1.365l76.937-57.617c17.988-16.282 41.131 12.8 21.163 26.624l-76.868 57.685c-9.114 7.168-20.685 13.585-34.782 13.585zM256 379.733h512c9.455 0 17.067-7.612 17.067-17.067s-7.612-17.067-17.067-17.067h-512c-9.455 0-17.067 7.612-17.067 17.067s7.612 17.067 17.067 17.067zM375.467 789.333c-37.547 0-68.267-30.72-68.267-68.267s30.72-68.267 68.267-68.267 68.267 30.72 68.267 68.267-30.72 68.267-68.267 68.267zM375.467 755.2c19.046 0 34.133-15.087 34.133-34.133s-15.087-34.133-34.133-34.133-34.133 15.087-34.133 34.133 15.087 34.133 34.133 34.133zM853.333 89.6c0-9.426-7.641-17.067-17.067-17.067s-17.067 7.641-17.067 17.067c0 9.426 7.641 17.067 17.067 17.067s17.067-7.641 17.067-17.067zM204.8 89.6c0-9.426-7.641-17.067-17.067-17.067s-17.067 7.641-17.067 17.067c0 9.426 7.641 17.067 17.067 17.067s17.067-7.641 17.067-17.067zM512 140.8c-37.547 0-68.267-30.72-68.267-68.267s30.72-68.267 68.267-68.267 68.267 30.72 68.267 68.267-30.72 68.267-68.267 68.267zM512 106.667c19.217 0 34.133-14.916 34.133-34.133s-14.916-34.133-34.133-34.133-34.133 14.916-34.133 34.133 14.916 34.133 34.133 34.133zM904.533 857.6c-22.699 0-22.118-34.133 0-34.133h68.267c9.762 0 17.067-7.305 17.067-17.067v-477.867c0-9.762-7.305-17.067-17.067-17.067h-68.267c-22.323 0-22.528-34.133 0-34.133h68.267c28.058 0 51.2 23.142 51.2 51.2v477.867c0 28.058-23.142 51.2-51.2 51.2zM51.2 857.6c-28.058 0-51.2-23.142-51.2-51.2v-477.867c0-28.058 23.142-51.2 51.2-51.2h68.267c22.528 0 22.699 34.133 0 34.133h-68.267c-9.762 0-17.067 7.305-17.067 17.067v477.867c0 9.762 7.305 17.067 17.067 17.067h68.267c22.528 0 22.528 34.133 0 34.133zM221.867 891.733c-28.058 0-51.2-23.142-51.2-51.2v-546.133c0-28.058 23.142-51.2 51.2-51.2h580.267c28.058 0 51.2 23.142 51.2 51.2v546.133c0 28.058-23.142 51.2-51.2 51.2zM221.867 857.6h580.267c9.762 0 17.067-7.305 17.067-17.067v-546.133c0-9.762-7.305-17.067-17.067-17.067h-580.267c-9.762 0-17.067 7.305-17.067 17.067v546.133c0 9.762 7.305 17.067 17.067 17.067z" />
<glyph unicode="&#xe93d;" glyph-name="mbri-info" d="M512 755.2c-37.547 0-68.267-30.72-68.267-68.267s30.72-68.267 68.267-68.267 68.267 30.72 68.267 68.267-30.72 68.267-68.267 68.267zM512 721.067c19.217 0 34.133-14.916 34.133-34.133s-14.916-34.133-34.133-34.133-34.133 14.916-34.133 34.133 14.916 34.133 34.133 34.133zM512 960c-282.556 0-512-229.444-512-512s229.444-512 512-512c282.556 0 512 229.444 512 512s-229.444 512-512 512zM512 925.867c264.124 0 477.867-213.743 477.867-477.867s-213.743-477.867-477.867-477.867-477.867 213.743-477.867 477.867 213.743 477.867 477.867 477.867zM512 584.533c-37.547 0-68.267-30.72-68.267-68.267v-307.2c0-37.547 30.72-68.267 68.267-68.267s68.267 30.72 68.267 68.267v307.2c0 37.547-30.72 68.267-68.267 68.267zM512 550.4c19.217 0 34.133-14.916 34.133-34.133v-307.2c0-19.217-14.916-34.133-34.133-34.133s-34.133 14.916-34.133 34.133v307.2c0 19.217 14.916 34.133 34.133 34.133z" />
<glyph unicode="&#xe93e;" glyph-name="mbri-italic" d="M665.6 960c-46.933 0-85.333-38.4-85.333-85.333s38.4-85.333 85.333-85.333 85.333 38.4 85.333 85.333-38.4 85.333-85.333 85.333zM665.6 925.867c28.467 0 51.2-22.733 51.2-51.2s-22.733-51.2-51.2-51.2-51.2 22.733-51.2 51.2 22.733 51.2 51.2 51.2zM600.542 755.2c-57.481 0-104.004-37.786-136.533-73.591-32.563-35.84-47.275-61.338-52.224-71.475-9.796-19.729 17.51-37.069 29.798-16.043 5.7 9.796 17.408 32.666 46.967 65.126 11.401 12.527 25.088 23.211 39.458 33.041 14.677 10.103 19.661-6.929 21.299-17.067 2.389-14.916-2.867-43.452-14.95-77.824-24.166-68.813-73.216-163.294-119.467-258.15-46.251-94.891-90.112-189.611-103.424-264.533-6.724-37.478-7.168-70.656 8.533-97.075 15.599-26.419 47.241-41.643 88.508-41.643 57.446 0 107.657 38.059 143.94 73.591 36.318 35.567 52.975 62.020 58.709 71.475 12.459 20.582-15.804 34.611-27.75 18.091-6.485-8.875-22.084-32.324-55.467-65.024-10.377-10.103-21.709-20.48-34.133-28.809-10.24-6.724-13.653 7.509-15.019 16.043-2.321 14.848 4.301 42.53 17.067 76.8 25.668 68.506 75.981 162.748 121.651 257.024 45.67 94.379 87.484 188.416 97.041 263.509 4.779 37.547 1.843 72.363-17.067 98.133-18.773 25.771-52.122 38.4-96.905 38.4zM600.542 721.067c38.366 0 58.095-9.216 69.291-24.576 11.264-15.292 14.882-40.619 10.718-73.557-8.397-65.877-48.572-159.232-93.867-252.791-45.329-93.628-94.549-187.904-121.617-260.301-13.551-36.181-22.869-66.697-20.275-92.843 1.365-13.039 6.042-25.122 16.043-34.133-17.203-8.533-34.918-12.766-52.224-12.766-34.133 0-49.835 9.557-58.709 24.576-8.875 14.95-11.264 40.073-5.325 73.557 11.947 66.901 54.272 161.69 100.25 256 46.080 94.31 95.915 189.303 121.651 262.417 12.834 36.523 19.9 67.413 15.974 93.867-1.877 12.732-7.236 24.439-17.067 33.041 11.605 4.267 23.211 7.509 35.226 7.509z" />
<glyph unicode="&#xe93f;" glyph-name="mbri-key" d="M273.067 960c-150.596 0-273.067-122.47-273.067-273.067s122.47-273.067 273.067-273.067c39.936 0 68.437 8.533 94.891 18.091l456.226-456.841c19.934-19.934 47.684-39.117 80.35-39.117h68.267c14.438 0 26.18 6.997 35.157 16.043 9.045 8.977 16.043 20.719 16.043 35.157v68.267c0 32.666-19.217 60.416-39.117 80.35l-34.133 34.133c-3.209 3.209-7.509 4.983-12.083 4.983h-51.2v51.2c0 4.54-1.775 8.875-4.983 12.083l-68.267 68.267c-3.209 3.174-7.509 4.983-12.083 4.983h-51.2v51.2c0 4.54-1.809 8.875-4.983 12.083l-68.267 68.267c-3.209 3.174-7.509 4.983-12.083 4.983h-51.2v51.2c0 4.54-1.809 8.875-4.983 12.083l-82.159 82.125c11.025 30.106 18.876 61.44 18.876 93.525 0 150.596-122.47 273.067-273.067 273.067zM273.067 925.867c132.164 0 238.933-106.769 238.933-238.933 0-31.881-6.383-63.42-18.773-92.843-2.628-6.349-1.195-13.722 3.755-18.637l83.285-83.285v-61.235c0-9.421 7.646-17.067 17.067-17.067h61.201l58.266-58.266v-61.201c0-9.421 7.646-17.067 17.067-17.067h61.201l58.266-58.266v-61.201c0-9.421 7.646-17.067 17.067-17.067h61.201l29.116-29.15c16.043-16.043 29.15-37.956 29.15-56.183v-68.267c0-1.707-2.048-6.963-6.076-10.991-4.028-4.096-9.318-6.076-10.991-6.076h-68.267c-18.227 0-40.141 13.073-56.183 29.15l-464.009 463.974c-4.915 4.949-12.288 6.383-18.773 3.686-29.252-12.425-60.757-18.842-92.501-18.944-132.164 0-238.933 106.769-238.933 238.933s106.769 238.933 238.933 238.933zM204.8 823.467c-37.547 0-68.267-30.72-68.267-68.267s30.72-68.267 68.267-68.267 68.267 30.72 68.267 68.267-30.72 68.267-68.267 68.267zM204.8 789.333c19.046 0 34.133-15.087 34.133-34.133s-15.087-34.133-34.133-34.133-34.133 15.087-34.133 34.133 15.087 34.133 34.133 34.133z" />
<glyph unicode="&#xe940;" glyph-name="mbri-laptop" d="M17.067 209.067c-9.421 0-17.067-7.646-17.067-17.067 0-64.375 44.134-119.467 102.4-119.467h819.2c58.266 0 102.4 55.091 102.4 119.467 0 9.421-7.646 17.067-17.067 17.067zM39.868 174.933h944.265c-7.236-38.741-31.334-68.267-62.532-68.267h-819.2c-31.198 0-55.296 29.525-62.532 68.267zM187.733 755.2c-28.058 0-51.2-23.142-51.2-51.2v-443.733c0-9.421 7.646-17.067 17.067-17.067h716.8c9.421 0 17.067 7.646 17.067 17.067v443.733c0 28.058-23.142 51.2-51.2 51.2zM187.733 721.067h648.533c9.762 0 17.067-7.305 17.067-17.067v-426.667h-682.667v426.667c0 9.762 7.305 17.067 17.067 17.067zM153.6 823.467c-46.967 0-85.333-38.366-85.333-85.333v-477.867c-0.341-23.074 34.475-23.074 34.133 0v477.867c0 28.672 22.528 51.2 51.2 51.2h716.8c28.672 0 51.2-22.528 51.2-51.2v-477.867c-0.341-23.074 34.475-23.074 34.133 0v477.867c0 46.967-38.366 85.333-85.333 85.333z" />
<glyph unicode="&#xe941;" glyph-name="mbri-layers" d="M870.4 755.2c-22.528 0-22.118-34.133 0-34.133h102.4c9.762 0 17.067-7.305 17.067-17.067v-716.8c0-9.762-7.305-17.067-17.067-17.067h-716.8c-9.762 0-17.067 7.305-17.067 17.067v102.4c0 22.528-34.133 22.665-34.133 0v-102.4c0-28.058 23.142-51.2 51.2-51.2h716.8c28.058 0 51.2 23.142 51.2 51.2v716.8c0 28.058-23.142 51.2-51.2 51.2zM51.2 960c-28.058 0-51.2-23.142-51.2-51.2v-716.8c0-28.058 23.142-51.2 51.2-51.2h716.8c28.058 0 51.2 23.142 51.2 51.2v716.8c0 28.058-23.142 51.2-51.2 51.2zM51.2 925.867h716.8c9.762 0 17.067-7.305 17.067-17.067v-716.8c0-9.762-7.305-17.067-17.067-17.067h-716.8c-9.762 0-17.067 7.305-17.067 17.067v716.8c0 9.762 7.305 17.067 17.067 17.067z" />
<glyph unicode="&#xe942;" glyph-name="mbri-left-right" d="M119.467 618.667h785.067c23.006 0 22.46 34.133 0 34.133h-785.067c-22.972 0-22.323-34.133 0-34.133zM165.342 759.501l-124.245-124.382 124.245-123.29c15.804-15.36-8.021-40.96-24.235-24.235l-136.329 135.407c-6.349 6.349-6.349 17.92 0 24.235l136.329 136.533c16.623 16.725 40.277-8.124 24.235-24.235zM904.533 277.333h-785.067c-22.972 0-22.426-34.133 0-34.133h785.067c23.006 0 22.357 34.133 0 34.133zM858.658 136.499l124.245 124.382-124.245 123.29c-15.804 15.36 8.021 40.96 24.235 24.235l136.329-135.407c6.349-6.349 6.349-17.92 0-24.235l-136.329-136.533c-16.623-16.725-40.277 8.124-24.235 24.235z" />
<glyph unicode="&#xe943;" glyph-name="mbri-left" d="M1024 465.067c-0.137-9.421-7.646-17.203-17.067-17.067h-887.467c-22.528 0-22.665 34.133 0 34.133h887.467c9.626 0.137 17.203-7.441 17.067-17.067zM512-12.8c0-15.36-18.91-22.63-29.15-12.083l-477.867 477.867c-6.656 6.69-6.656 17.476 0 24.166l477.867 477.867c14.541 15.087 39.834-8.465 24.166-24.166l-465.818-465.783 465.818-465.783c3.311-3.243 4.983-7.509 4.983-12.083z" />
<glyph unicode="&#xe944;" glyph-name="mbri-letter" d="M85.333 721.067c-17.067 0-23.381-22.391-9.216-31.471l403.9-265.557c20.48-13.483 46.763-13.653 67.243 0l400.282 265.216c19.729 12.049-0.341 41.643-18.773 28.467l-400.316-265.216c-11.162-7.441-18.432-7.373-29.696 0l-403.763 265.66c-2.901 1.877-6.178 2.901-9.66 2.901zM51.2 789.333c-28.058 0-51.2-23.142-51.2-51.2v-580.267c0-28.058 23.142-51.2 51.2-51.2h921.6c28.058 0 51.2 23.142 51.2 51.2v580.267c0 28.058-23.142 51.2-51.2 51.2h-921.6zM51.2 755.2h921.6c9.762 0 17.067-7.305 17.067-17.067v-580.267c0-9.762-7.305-17.067-17.067-17.067h-921.6c-9.762 0-17.067 7.305-17.067 17.067v580.267c0 9.762 7.305 17.067 17.067 17.067z" />
</font>
</defs>
</svg>
